<?xml version="1.0" standalone="no"?>
<!DOCTYPE svg PUBLIC "-//W3C//DTD SVG 1.1//EN" "http://www.w3.org/Graphics/SVG/1.1/DTD/svg11.dtd" >
<svg xmlns="http://www.w3.org/2000/svg">
<metadata>Generated by IcoMoon</metadata>
<defs>
<font id="icomoon" horiz-adv-x="1024">
<font-face units-per-em="1024" ascent="960" descent="-64" />
<missing-glyph horiz-adv-x="1024" />
<glyph unicode="&#x20;" horiz-adv-x="512" d="" />
<glyph unicode="&#xe000;" glyph-name="error" d="M554 384.667v256h-84v-256h84zM554 212.667v86h-84v-86h84zM512 852.667c236 0 426-190 426-426s-190-426-426-426-426 190-426 426 190 426 426 426z" />
<glyph unicode="&#xe001;" glyph-name="error_outline" d="M512 84.667c188 0 342 154 342 342s-154 342-342 342-342-154-342-342 154-342 342-342zM512 852.667c236 0 426-190 426-426s-190-426-426-426-426 190-426 426 190 426 426 426zM470 640.667h84v-256h-84v256zM470 298.667h84v-86h-84v86z" />
<glyph unicode="&#xe003;" glyph-name="add_alert" d="M682 382.667v86h-128v128h-84v-128h-128v-86h128v-128h84v128h128zM806 220.667l90-90v-46h-768v46l90 90v248c0 138 96 256 226 286v30c0 38 30 68 68 68s68-30 68-68v-30c130-30 226-148 226-286v-248zM428 42.667h168c0-46-38-86-84-86s-84 40-84 86z" />
<glyph unicode="&#xe01d;" glyph-name="equalizer" d="M682 554.667h172v-470h-172v470zM170 84.667v342h172v-342h-172zM426 84.667v684h172v-684h-172z" />
<glyph unicode="&#xe021;" glyph-name="games" d="M704 554.667h234v-256h-234l-128 128zM384 234.667l128 128 128-128v-234h-256v234zM320 554.667l128-128-128-128h-234v256h234zM640 618.667l-128-128-128 128v234h256v-234z" />
<glyph unicode="&#xe029;" glyph-name="mic" d="M738 468.667h72c0-146-116-266-256-286v-140h-84v140c-140 20-256 140-256 286h72c0-128 108-216 226-216s226 88 226 216zM512 340.667c-70 0-128 58-128 128v256c0 70 58 128 128 128s128-58 128-128v-256c0-70-58-128-128-128z" />
<glyph unicode="&#xe02a;" glyph-name="mic_none" d="M738 468.667h72c0-146-116-266-256-286v-140h-84v140c-140 20-256 140-256 286h72c0-128 108-216 226-216s226 88 226 216zM460 728.667v-264c0-28 24-50 52-50s50 22 50 50l2 264c0 28-24 52-52 52s-52-24-52-52zM512 340.667c-70 0-128 58-128 128v256c0 70 58 128 128 128s128-58 128-128v-256c0-70-58-128-128-128z" />
<glyph unicode="&#xe031;" glyph-name="new_releases" d="M554 384.667v256h-84v-256h84zM554 212.667v86h-84v-86h84zM982 426.667l-104-118 14-158-154-34-80-136-146 62-146-62-80 134-154 36 14 158-104 118 104 120-14 156 154 34 80 136 146-62 146 62 80-136 154-34-14-158z" />
<glyph unicode="&#xe033;" glyph-name="not_interested" d="M782 216.667c46 58 72 132 72 210 0 188-154 342-342 342-78 0-152-26-210-72zM512 84.667c78 0 152 26 210 72l-480 480c-46-58-72-132-72-210 0-188 154-342 342-342zM512 852.667c236 0 426-190 426-426s-190-426-426-426-426 190-426 426 190 426 426 426z" />
<glyph unicode="&#xe050;" glyph-name="volume_up" d="M598 800.667c172-38 298-192 298-374s-126-336-298-374v88c124 36 212 150 212 286s-88 250-212 286v88zM704 426.667c0-76-42-140-106-172v344c64-32 106-96 106-172zM128 554.667h170l214 214v-684l-214 214h-170v256z" />
<glyph unicode="&#xe051;" glyph-name="web" d="M854 170.667v384h-172v-384h172zM640 384.667v170h-470v-170h470zM640 170.667v170h-470v-170h470zM854 768.667c46 0 84-40 84-86v-512c0-46-38-86-84-86h-684c-46 0-84 40-84 86v512c0 46 38 86 84 86h684z" />
<glyph unicode="&#xe055;" glyph-name="airplay" d="M896 810.667c46 0 86-40 86-86v-512c0-46-40-84-86-84h-170v84h170v512h-768v-512h170v-84h-170c-46 0-86 38-86 84v512c0 46 40 86 86 86h768zM256 0.667l256 256 256-256h-512z" />
<glyph unicode="&#xe05c;" glyph-name="add_to_queue" d="M682 512.667v-86h-128v-128h-84v128h-128v86h128v128h84v-128h128zM896 212.667v512h-768v-512h768zM896 810.667c46 0 86-38 86-86l-2-512c0-46-38-84-84-84h-214v-86h-340v86h-214c-48 0-86 38-86 84v512c0 48 38 86 86 86h768z" />
<glyph unicode="&#xe05e;" glyph-name="fiber_new" d="M874 340.667v214h-52v-192h-48v150h-54v-150h-48v192h-54v-214c0-24 20-42 44-42h170c24 0 42 18 42 42zM576 500.667v54h-170v-256h170v54h-106v46h106v54h-106v48h106zM362 298.667v256h-52v-150l-108 150h-52v-256h52v150l110-150h50zM854 768.667c48 0 84-38 84-86v-512c0-48-36-86-84-86h-684c-48 0-84 38-84 86v512c0 48 36 86 84 86h684z" />
<glyph unicode="&#xe061;" glyph-name="fiber_manual_record" d="M170 426.667c0 188 154 342 342 342s342-154 342-342-154-342-342-342-342 154-342 342z" />
<glyph unicode="&#xe063;" glyph-name="music_video" d="M342 298.667c0 70 58 128 128 128 14 0 28-4 42-8v264h214v-86h-128v-300c0-70-58-126-128-126s-128 58-128 128zM896 128.667v596h-768v-596h768zM896 810.667c46 0 86-40 86-86v-596c0-46-40-86-86-86h-768c-46 0-86 40-86 86v596c0 46 40 86 86 86h768z" />
<glyph unicode="&#xe069;" glyph-name="web_asset" d="M810 170.667v426h-596v-426h596zM810 768.667c48 0 86-40 86-86v-512c0-46-40-86-86-86h-596c-48 0-86 40-86 86v512c0 46 38 86 86 86h596z" />
<glyph unicode="&#xe06a;" glyph-name="fiber_pin" d="M854 298.667v256h-54v-150l-106 150h-54v-256h54v150l108-150h52zM534 298.667v256h-64v-256h64zM384 448.667v42c0 36-28 64-64 64h-150v-256h64v86h86c36 0 64 28 64 64zM854 768.667c48 0 84-38 84-86v-512c0-48-36-86-84-86h-684c-48 0-84 38-84 86v512c0 48 36 86 84 86h684zM234 490.667h86v-42h-86v42z" />
<glyph unicode="&#xe0c6;" glyph-name="live_help" d="M642 500.667c24 24 40 58 40 96 0 94-76 172-170 172s-170-78-170-172h84c0 46 40 86 86 86s86-40 86-86c0-24-10-44-26-60l-52-54c-30-32-50-74-50-120v-22h84c0 64 20 90 50 122zM554 170.667v86h-84v-86h84zM810 852.667c46 0 86-38 86-84v-598c0-46-40-86-86-86h-170l-128-128-128 128h-170c-48 0-86 40-86 86v598c0 46 38 84 86 84h596z" />
<glyph unicode="&#xe0cd;" glyph-name="phone2" d="M282 478.667c62-120 162-220 282-282l94 94c12 12 30 16 44 10 48-16 100-24 152-24 24 0 42-18 42-42v-150c0-24-18-42-42-42-400 0-726 326-726 726 0 24 18 42 42 42h150c24 0 42-18 42-42 0-54 8-104 24-152 4-14 2-32-10-44z" />
<glyph unicode="&#xe0d6;" glyph-name="stay_primary_portrait" d="M726 128.667v596h-428v-596h428zM726 894.667c46 0 84-38 84-84v-768c0-46-38-86-84-86h-428c-46 0-84 40-84 86v768c0 46 38 86 84 86z" />
<glyph unicode="&#xe0da;" glyph-name="vpn_key" d="M298 340.667c46 0 86 40 86 86s-40 86-86 86-84-40-84-86 38-86 84-86zM540 512.667h442v-172h-86v-170h-170v170h-186c-34-100-130-170-242-170-142 0-256 114-256 256s114 256 256 256c112 0 208-70 242-170z" />
<glyph unicode="&#xe0db;" glyph-name="phonelink_erase" d="M810 896.667c46 0 86-40 86-86v-768c0-46-40-86-86-86h-426c-46 0-86 40-86 86v128h86v-86h426v684h-426v-86h-86v128c0 46 40 86 86 86h426zM554 588.667l-170-170 170-172-42-42-170 170-172-170-42 42 170 172-170 170 42 42 172-170 170 170z" />
<glyph unicode="&#xe0e1;" glyph-name="mail_outline" d="M512 468.667l342 214h-684zM854 170.667v426l-342-212-342 212v-426h684zM854 768.667c46 0 84-40 84-86v-512c0-46-38-86-84-86h-684c-46 0-84 40-84 86v512c0 46 38 86 84 86h684z" />
<glyph unicode="&#xe145;" glyph-name="add" d="M810 384.667h-256v-256h-84v256h-256v84h256v256h84v-256h256v-84z" />
<glyph unicode="&#xe147;" glyph-name="add_circle" d="M726 384.667v84h-172v172h-84v-172h-172v-84h172v-172h84v172h172zM512 852.667c236 0 426-190 426-426s-190-426-426-426-426 190-426 426 190 426 426 426z" />
<glyph unicode="&#xe14a;" glyph-name="backspace" d="M810 272.667l-152 154 152 154-60 60-152-154-154 154-60-60 154-154-154-154 60-60 154 154 152-154zM938 810.667c46 0 86-40 86-86v-596c0-46-40-86-86-86h-640c-30 0-52 16-68 38l-230 346 230 346c16 22 38 38 68 38h640z" />
<glyph unicode="&#xe14b;" glyph-name="block" d="M512 84.667c188 0 342 154 342 342 0 78-26 152-72 210l-480-480c58-46 132-72 210-72zM170 426.667c0-78 26-152 72-210l480 480c-58 46-132 72-210 72-188 0-342-154-342-342zM512 852.667c236 0 426-190 426-426s-190-426-426-426-426 190-426 426 190 426 426 426z" />
<glyph unicode="&#xe14d;" glyph-name="content_copy" d="M810 42.667v598h-468v-598h468zM810 724.667c46 0 86-38 86-84v-598c0-46-40-86-86-86h-468c-46 0-86 40-86 86v598c0 46 40 84 86 84h468zM682 896.667v-86h-512v-598h-84v598c0 46 38 86 84 86h512z" />
<glyph unicode="&#xe14e;" glyph-name="content_cut" d="M810 810.667h128v-42l-298-300-86 86zM512 404.667c12 0 22 10 22 22s-10 22-22 22-22-10-22-22 10-22 22-22zM256 84.667c46 0 86 38 86 86s-40 86-86 86-86-38-86-86 40-86 86-86zM256 596.667c46 0 86 38 86 86s-40 86-86 86-86-38-86-86 40-86 86-86zM412 612.667l526-528v-42h-128l-298 298-100-100c10-22 14-44 14-70 0-94-76-170-170-170s-170 76-170 170 76 170 170 170c26 0 48-4 70-14l100 100-100 100c-22-10-44-14-70-14-94 0-170 76-170 170s76 170 170 170 170-76 170-170c0-26-4-48-14-70z" />
<glyph unicode="&#xe14f;" glyph-name="content_paste" d="M810 84.667v684h-84v-128h-428v128h-84v-684h596zM512 852.667c-24 0-42-18-42-42s18-42 42-42 42 18 42 42-18 42-42 42zM810 852.667c46 0 86-38 86-84v-684c0-46-40-84-86-84h-596c-46 0-86 38-86 84v684c0 46 40 84 86 84h178c18 50 64 86 120 86s102-36 120-86h178z" />
<glyph unicode="&#xe151;" glyph-name="drafts" d="M512 384.667l352 220-352 206-352-206zM938 596.667v-426c0-46-38-86-84-86h-684c-46 0-84 40-84 86v426c0 30 16 60 40 74l386 226 386-226c24-14 40-44 40-74z" />
<glyph unicode="&#xe152;" glyph-name="filter_list" d="M256 384.667v84h512v-84h-512zM128 682.667h768v-86h-768v86zM426 170.667v86h172v-86h-172z" />
<glyph unicode="&#xe156;" glyph-name="inbox2" d="M810 298.667v426h-598v-426h172c0-70 58-128 128-128s128 58 128 128h170zM810 810.667c46 0 86-38 86-86v-596c0-46-40-86-86-86h-598c-48 0-84 40-84 86v596c0 48 36 86 84 86h598z" />
<glyph unicode="&#xe157;" glyph-name="link2" d="M726 640.667c118 0 212-96 212-214s-94-214-212-214h-172v82h172c72 0 132 60 132 132s-60 132-132 132h-172v82h172zM342 384.667v84h340v-84h-340zM166 426.667c0-72 60-132 132-132h172v-82h-172c-118 0-212 96-212 214s94 214 212 214h172v-82h-172c-72 0-132-60-132-132z" />
<glyph unicode="&#xe159;" glyph-name="markunread" d="M854 596.667v86l-342-214-342 214v-86l342-212zM854 768.667c46 0 84-40 84-86v-512c0-46-38-86-84-86h-684c-46 0-84 40-84 86v512c0 46 38 86 84 86h684z" />
<glyph unicode="&#xe16a;" glyph-name="next_week" d="M470 148.667l170 172-170 170-44-42 128-128-128-128zM426 724.667v-84h172v84h-172zM598 810.667c46.645 0 84-38.997 84-86v-84h172c46 0 84-40 84-86v-470c0-46-38-84-84-84h-684c-46 0-84 38-84 84v470c0 46 38 86 84 86h172v84c0 46 38 86 84 86h172z" />
<glyph unicode="&#xe16b;" glyph-name="weekend" d="M768 724.667c46 0 86-38 86-84v-92c-50-18-86-64-86-120v-88h-512v88c0 56-36 102-86 120v92c0 46 40 84 86 84h512zM896 512.667c46 0 86-40 86-86v-214c0-46-40-84-86-84h-768c-46 0-86 38-86 84v214c0 46 40 86 86 86s86-40 86-86v-128h596v128c0 46 40 86 86 86z" />
<glyph unicode="&#xe1a7;" glyph-name="bluetooth2" d="M634 242.667l-80 82v-162zM554 690.667v-162l80 82zM756 610.667l-184-184 184-184-244-242h-42v324l-196-196-60 60 238 238-238 238 60 60 196-196v324h42z" />
<glyph unicode="&#xe1ad;" glyph-name="brightness_low" d="M512 170.667c142 0 256 114 256 256s-114 256-256 256-256-114-256-256 114-256 256-256zM854 284.667v-200h-200l-142-140-142 140h-200v200l-140 142 140 142v200h200l142 140 142-140h200v-200l140-142z" />
<glyph unicode="&#xe1b7;" glyph-name="location_searching" d="M512 128.667c166 0 298 132 298 298s-132 298-298 298-298-132-298-298 132-298 298-298zM894 468.667h88v-84h-88c-20-178-162-320-340-340v-88h-84v88c-178 20-320 162-340 340h-88v84h88c20 178 162 320 340 340v88h84v-88c178-20 320-162 340-340z" />
<glyph unicode="&#xe1bb;" glyph-name="nfc" d="M768 682.667v-512h-512v512h170v-86h-84v-340h340v340h-128v-96c26-14 44-42 44-74 0-46-40-86-86-86s-86 40-86 86c0 32 18 60 44 74v96c0 46 38 86 84 86h214zM854 84.667v684h-684v-684h684zM854 852.667c46 0 84-38 84-84v-684c0-46-38-84-84-84h-684c-46 0-84 38-84 84v684c0 46 38 84 84 84h684z" />
<glyph unicode="&#xe227;" glyph-name="attach_money" d="M504 472.667c96-26 200-64 200-186 0-88-66-136-150-152v-92h-128v92c-82 18-150 70-156 164h94c4-50 38-90 126-90 94 0 116 46 116 76 0 40-22 78-128 104-120 28-200 78-200 176 0 82 66 136 148 154v92h128v-94c90-22 136-88 138-162h-94c-2 54-32 90-108 90-72 0-114-34-114-80 0-40 32-66 128-92z" />
<glyph unicode="&#xe243;" glyph-name="format_paint" d="M768 768.667h128v-342h-342v-384c0-24-18-42-42-42h-86c-24 0-42 18-42 42v470h426v170h-42v-42c0-24-18-44-42-44h-512c-24 0-44 20-44 44v170c0 24 20 42 44 42h512c24 0 42-18 42-42v-42z" />
<glyph unicode="&#xe254;" glyph-name="mode_edit" d="M884 638.667l-78-78-160 160 78 78c16 16 44 16 60 0l100-100c16-16 16-44 0-60zM128 202.667l472 472 160-160-472-472h-160v160z" />
<glyph unicode="&#xe25f;" glyph-name="highlight" d="M724 658.667l90 90 60-60-90-92zM150 688.667l60 60 90-90-60-62zM470 852.667h84v-128h-84v128zM256 340.667v214h512v-214l-128-128v-212h-256v212z" />
<glyph unicode="&#xe263;" glyph-name="monetization_on" d="M572 166.667c74 14 134 56 134 134 0 108-94 146-180 168s-112 46-112 82c0 40 38 70 102 70 68 0 92-32 94-80h84c-2 66-42 124-122 144v84h-114v-84c-74-16-132-62-132-136 0-88 72-130 178-156 96-22 114-56 114-92 0-26-18-68-102-68-78 0-110 36-114 80h-84c4-82 68-128 140-144v-84h114v82zM512 852.667c236 0 426-190 426-426s-190-426-426-426-426 190-426 426 190 426 426 426z" />
<glyph unicode="&#xe2c0;" glyph-name="cloud_download" d="M726 384.667h-128v170h-172v-170h-128l214-214zM826 510.667c110-8 198-100 198-212 0-118-96-214-214-214h-554c-142 0-256 114-256 256 0 132 100 240 228 254 54 102 160 174 284 174 156 0 284-110 314-258z" />
<glyph unicode="&#xe2c2;" glyph-name="cloud_queue" d="M810 170.667c70 0 128 58 128 128s-58 128-128 128h-64v22c0 130-104 234-234 234-108 0-198-72-226-170h-30c-94 0-170-78-170-172s76-170 170-170h554zM826 510.667c110-8 198-100 198-212 0-118-96-214-214-214h-554c-142 0-256 114-256 256 0 132 100 240 228 254 54 102 160 174 284 174 156 0 284-110 314-258z" />
<glyph unicode="&#xe2c3;" glyph-name="cloud_upload" d="M598 384.667h128l-214 212-214-212h128v-172h172v172zM826 510.667c110-8 198-100 198-212 0-118-96-214-214-214h-554c-142 0-256 114-256 256 0 132 100 240 228 254 54 102 160 174 284 174 156 0 284-110 314-258z" />
<glyph unicode="&#xe307;" glyph-name="cast" d="M42 512.667c258 0 470-210 470-470h-86c0 212-172 384-384 384v86zM42 340.667c166 0 300-132 300-298h-86c0 118-96 214-214 214v84zM42 170.667c70 0 128-58 128-128h-128v128zM896 810.667c46 0 86-40 86-86v-596c0-46-40-86-86-86h-298v86h298v596h-768v-128h-86v128c0 46 40 86 86 86h768z" />
<glyph unicode="&#xe308;" glyph-name="cast_connected" d="M896 810.667c46 0 86-40 86-86v-596c0-46-40-86-86-86h-298v86h298v596h-768v-128h-86v128c0 46 40 86 86 86h768zM42 512.667c258 0 470-210 470-470h-86c0 212-172 384-384 384v86zM810 640.667v-428h-240c-54 168-188 304-356 358v70h596zM42 340.667c166 0 300-132 300-298h-86c0 118-96 214-214 214v84zM42 170.667c70 0 128-58 128-128h-128v128z" />
<glyph unicode="&#xe30b;" glyph-name="desktop_mac" d="M896 340.667v428h-768v-428h768zM896 852.667c46 0 86-38 86-84v-512c0-46-40-86-86-86h-298l84-128v-42h-340v42l84 128h-298c-46 0-86 40-86 86v512c0 46 40 84 86 84h768z" />
<glyph unicode="&#xe30c;" glyph-name="desktop_windows" d="M896 256.667v512h-768v-512h768zM896 852.667c46 0 86-38 86-84v-512c0-46-40-86-86-86h-298v-86h84v-84h-340v84h84v86h-298c-46 0-86 40-86 86v512c0 46 40 84 86 84h768z" />
<glyph unicode="&#xe310;" glyph-name="ruler-size-chart-noun1" d="M176.022 874.667c-8.836-0.001-15.999-7.164-16-16v0-864c0.001-8.836 7.164-15.999 16-16h256c8.836 0.001 15.999 7.164 16 16v0 864c-0.001 8.836-7.164 15.999-16 16h-256zM671.772 874.667c-35.179 0-64-28.822-64-64v-77.375c-0.138-0.789-0.217-1.698-0.217-2.625s0.079-1.836 0.23-2.72l-0.013 0.095v-509.375c0.005-2.598 0.628-5.049 1.729-7.216l-0.042 0.091 112-224c2.686-5.287 8.083-8.846 14.312-8.846s11.627 3.559 14.271 8.755l0.042 0.091 112 224c1.069 2.088 1.696 4.556 1.696 7.169 0 0.182-0.003 0.364-0.009 0.545l0.001-0.026v508.938c0.131 0.77 0.207 1.658 0.207 2.562s-0.075 1.792-0.219 2.656l0.013-0.094v77.375c0 35.178-28.821 64-64 64h-128zM192.022 842.667h224v-832h-224v64h96v32h-96v64h128v32h-128v64h96v32h-96v64h128v32h-128v64h96v32h-96v64h128v32h-128v64h96v32h-96v64h128v32h-128v64zM671.772 842.667h128c18.005 0 32-13.997 32-32v-64h-192v64c0 18.003 13.995 32 32 32zM639.772 714.667h192v-484.562l-60.938-20.562-62 52.938c-2.738 2.368-6.319 3.826-10.24 3.875h-0.010v-0.062c-0.095 0.002-0.206 0.003-0.318 0.003-2.184 0-4.266-0.438-6.163-1.23l0.106 0.039-52.437-22.25v471.813zM671.772 682.667v-384h32v384h-32zM695.584 231.729l61.438-52.5c2.77-2.357 6.389-3.791 10.342-3.791 1.846 0 3.62 0.313 5.27 0.888l-0.112-0.034 43.562 14.75-80.312-160.625-90.063 180.125 49.875 21.187z" />
<glyph unicode="&#xe311;" glyph-name="ruler-size-chart-noun2" d="M307.2-23.893h409.6v901.12h-409.6v-901.12zM389.12 139.947h81.92v81.92h-81.92v81.92h163.84v81.92h-163.84v81.92h81.92v81.92h-81.92v81.92h163.84v81.92h-163.84v81.92h245.76v-737.28h-245.76v81.92z" />
<glyph unicode="&#xe312;" glyph-name="keyboard" d="M810 512.667v84h-84v-84h84zM810 384.667v84h-84v-84h84zM682 512.667v84h-84v-84h84zM682 384.667v84h-84v-84h84zM682 212.667v86h-340v-86h340zM298 512.667v84h-84v-84h84zM298 384.667v84h-84v-84h84zM342 468.667v-84h84v84h-84zM342 596.667v-84h84v84h-84zM470 468.667v-84h84v84h-84zM470 596.667v-84h84v84h-84zM854 724.667c46 0 84-38 84-84v-428c0-46-38-84-84-84h-684c-46 0-84 38-84 84v428c0 46 38 84 84 84h684z" />
<glyph unicode="&#xe31e;" glyph-name="laptop2" d="M170 682.667v-426h684v426h-684zM854 170.667h170v-86h-1024v86h170c-46 0-84 40-84 86v426c0 46 38 86 84 86h684c46 0 84-40 84-86v-426c0-46-38-86-84-86z" />
<glyph unicode="&#xe31f;" glyph-name="laptop_chromebook" d="M854 298.667v426h-684v-426h684zM598 170.667v42h-172v-42h172zM938 170.667h86v-86h-1024v86h86v640h852v-640z" />
<glyph unicode="&#xe320;" glyph-name="laptop_mac" d="M512 128.667c24 0 42 18 42 42s-18 42-42 42-42-18-42-42 18-42 42-42zM170 724.667v-468h684v468h-684zM854 170.667h170c0-46-40-86-86-86h-852c-46 0-86 40-86 86h170c-46 0-84 40-84 86v468c0 46 38 86 84 86h684c46 0 84-40 84-86v-468c0-46-38-86-84-86z" />
<glyph unicode="&#xe321;" glyph-name="laptop_windows" d="M170 724.667v-426h684v426h-684zM854 170.667h170v-86h-1024v86h170v42c-46 0-84 40-84 86v426c0 46 38 86 84 86h684c46 0 84-40 84-86v-426c0-46-38-86-84-86v-42z" />
<glyph unicode="&#xe324;" glyph-name="phone_android" d="M736 170.667v598h-448v-598h448zM598 42.667v42h-172v-42h172zM682 896.667c70 0 128-58 128-128v-684c0-70-58-128-128-128h-340c-70 0-128 58-128 128v684c0 70 58 128 128 128h340z" />
<glyph unicode="&#xe325;" glyph-name="phone_iphone" d="M682 170.667v598h-384v-598h384zM490 0.667c36 0 64 28 64 64s-28 64-64 64-64-28-64-64 28-64 64-64zM662 896.667c58 0 106-50 106-108v-724c0-58-48-108-106-108h-342c-58 0-106 50-106 108v724c0 58 48 108 106 108h342z" />
<glyph unicode="&#xe326;" glyph-name="phonelink" d="M938 212.667v300h-170v-300h170zM982 596.667c24 0 42-18 42-42v-426c0-24-18-44-42-44h-256c-24 0-44 20-44 44v426c0 24 20 42 44 42h256zM170 682.667v-470h428v-128h-598v128h86v470c0 46 38 86 84 86h768v-86h-768z" />
<glyph unicode="&#xe32d;" glyph-name="speaker" d="M512 426.667c70 0 128-58 128-128s-58-128-128-128-128 58-128 128 58 128 128 128zM512 84.667c118 0 214 96 214 214s-96 214-214 214-214-96-214-214 96-214 214-214zM512 768.667c-48 0-86-40-86-86s38-86 86-86c46 0 86 40 86 86s-40 86-86 86zM726 852.667c46 0 84-38 84-84v-684c0-46-38-84-84-84h-428c-46 0-84 38-84 84v684c0 46 38 84 84 84h428z" />
<glyph unicode="&#xe32f;" glyph-name="tablet2" d="M810 170.667v512h-596v-512h596zM896 768.667c46 0 86-40 86-86l-2-512c0-46-38-86-84-86h-768c-46 0-86 40-86 86v512c0 46 40 86 86 86h768z" />
<glyph unicode="&#xe330;" glyph-name="tablet_android" d="M822 128.667v682h-620v-682h620zM598 0.667v42h-172v-42h172zM768 938.667c70 0 128-58 128-128v-768c0-70-58-128-128-128h-512c-70 0-128 58-128 128v768c0 70 58 128 128 128h512z" />
<glyph unicode="&#xe331;" glyph-name="tablet_mac" d="M810 128.667v682h-640v-682h640zM490-43.333c36 0 64 28 64 64s-28 64-64 64-64-28-64-64 28-64 64-64zM790 938.667c58 0 106-48 106-106v-812c0-58-48-106-106-106h-598c-58 0-106 48-106 106v812c0 58 48 106 106 106h598z" />
<glyph unicode="&#xe334;" glyph-name="watch" d="M256 426.667c0-142 114-256 256-256s256 114 256 256-114 256-256 256-256-114-256-256zM854 426.667c0-108-52-206-130-268l-42-244h-340l-42 244c-80 62-130 160-130 268s50 206 130 268l42 244h340l42-244c78-62 130-160 130-268z" />
<glyph unicode="&#xe337;" glyph-name="devices_other" d="M896 170.667v342h-170v-342h170zM938 596.667c22 0 44-20 44-42v-426c0-22-22-44-44-44h-256c-22 0-42 22-42 44v426c0 22 20 42 42 42h256zM470 192.667c36 0 64 28 64 64s-28 64-64 64-64-28-64-64 28-64 64-64zM554 426.667v-76c26-24 44-56 44-94s-18-72-44-96v-76h-170v76c-26 24-42 58-42 96s16 70 42 94v76h170zM128 682.667v-512h170v-86h-170c-46 0-86 40-86 86v512c0 46 40 86 86 86h768v-86h-768z" />
<glyph unicode="&#xe39e;" glyph-name="adjust2" d="M640 426.667c0-70-58-128-128-128s-128 58-128 128 58 128 128 128 128-58 128-128zM512 84.667c188 0 342 154 342 342s-154 342-342 342-342-154-342-342 154-342 342-342zM512 852.667c236 0 426-190 426-426s-190-426-426-426-426 190-426 426 190 426 426 426z" />
<glyph unicode="&#xe3a6;" glyph-name="brightness_1" d="M86 426.667c0 236 190 426 426 426s426-190 426-426-190-426-426-426-426 190-426 426z" />
<glyph unicode="&#xe3a7;" glyph-name="brightness_2" d="M426 852.667c236 0 428-190 428-426s-192-426-428-426c-78 0-150 20-212 56 128 74 212 212 212 370s-84 296-212 370c62 36 134 56 212 56z" />
<glyph unicode="&#xe3a8;" glyph-name="brightness_3" d="M384 852.667c236 0 426-190 426-426s-190-426-426-426c-44 0-88 6-128 18 174 54 298 216 298 408s-124 354-298 408c40 12 84 18 128 18z" />
<glyph unicode="&#xe3b4;" glyph-name="center_focus_strong" d="M810 128.667v170h86v-170c0-46-40-86-86-86h-170v86h170zM810 810.667c46 0 86-40 86-86v-170h-86v170h-170v86h170zM214 724.667v-170h-86v170c0 46 40 86 86 86h170v-86h-170zM214 298.667v-170h170v-86h-170c-46 0-86 40-86 86v170h86zM512 596.667c94 0 170-76 170-170s-76-170-170-170-170 76-170 170 76 170 170 170z" />
<glyph unicode="&#xe3b5;" glyph-name="center_focus_weak" d="M512 340.667c46 0 86 40 86 86s-40 86-86 86-86-40-86-86 40-86 86-86zM512 596.667c94 0 170-76 170-170s-76-170-170-170-170 76-170 170 76 170 170 170zM810 128.667v170h86v-170c0-46-40-86-86-86h-170v86h170zM810 810.667c46 0 86-40 86-86v-170h-86v170h-170v86h170zM214 724.667v-170h-86v170c0 46 40 86 86 86h170v-86h-170zM214 298.667v-170h170v-86h-170c-46 0-86 40-86 86v170h86z" />
<glyph unicode="&#xe3b8;" glyph-name="colorize" d="M296 128.667l344 344-82 82-344-344zM884 698.667c16-16 18-42 0-60l-134-134 82-82-60-60-60 60-382-380h-202v202l380 382-60 60 60 60 82-82 134 134c16 16 44 16 60 0z" />
<glyph unicode="&#xe3b9;" glyph-name="compare" d="M810 810.667c46 0 86-40 86-86v-596c0-46-40-86-86-86h-212v384l212-256v554h-212v86h212zM426 170.667v256l-212-256h212zM426 810.667v86h86v-940h-86v86h-212c-46 0-86 40-86 86v596c0 46 40 86 86 86h212z" />
<glyph unicode="&#xe3ba;" glyph-name="control_point" d="M512 84.667c188 0 342 154 342 342s-154 342-342 342-342-154-342-342 154-342 342-342zM512 852.667c236 0 426-190 426-426s-190-426-426-426-426 190-426 426 190 426 426 426zM554 640.667v-172h172v-84h-172v-172h-84v172h-172v84h172v172h84z" />
<glyph unicode="&#xe3be;" glyph-name="crop2" d="M298 212.667h684v-84h-172v-172h-84v172h-428c-46 0-84 38-84 84v428h-172v84h172v172h84v-684zM726 298.667v342h-342v84h342c46 0 84-38 84-84v-342h-84z" />
<glyph unicode="&#xe3c2;" glyph-name="crop_free" d="M810 810.667c46 0 86-40 86-86v-170h-86v170h-170v86h170zM810 128.667v170h86v-170c0-46-40-86-86-86h-170v86h170zM214 298.667v-170h170v-86h-170c-46 0-86 40-86 86v170h86zM128 724.667c0 46 40 86 86 86h170v-86h-170v-170h-86v170z" />
<glyph unicode="&#xe3c4;" glyph-name="crop_original" d="M596 414.667l150-202h-468l116 152 84-102zM810 128.667v596h-596v-596h596zM810 810.667c46 0 86-40 86-86v-596c0-46-40-86-86-86h-596c-46 0-86 40-86 86v596c0 46 40 86 86 86h596z" />
<glyph unicode="&#xe3c8;" glyph-name="details" d="M272 682.667l240-426 240 426h-480zM128 768.667h768l-384-684z" />
<glyph unicode="&#xe3cb;" glyph-name="exposure_neg_1" d="M810 170.667h-84v454l-128-44v72l200 72h12v-554zM170 468.667h342v-84h-342v84z" />
<glyph unicode="&#xe3cc;" glyph-name="exposure_neg_2" d="M86 468.667h340v-84h-340v84zM702 724.667c103.361 0 172-46.875 172-150 0-16-2-34-8-50s-12-34-22-50c-21.913-35.061-50.22-70.22-80-100l-122-132h254v-72h-368v64l178 194c27.051 27.051 44.466 50.776 62 80 10.155 16.925 14 31.054 14 56 0 12 0 26-4 36-11.918 29.795-34.301 52-76 52-60.876 0-92-36.935-92-98h-92c0 51.336 20.69 92.69 48 120 31.385 31.385 73.692 50 136 50z" />
<glyph unicode="&#xe3cd;" glyph-name="exposure_plus_1" d="M854 170.667h-86v454l-128-44v72l200 72h14v-554zM426 640.667v-172h172v-84h-172v-172h-84v172h-172v84h172v172h84z" />
<glyph unicode="&#xe3ce;" glyph-name="exposure_plus_2" d="M342 640.667v-172h170v-84h-170v-172h-86v172h-170v84h170v172h86zM684 242.667h254v-72h-368v64l178 194c27.051 27.051 44.466 50.776 62 80 9.657 16.095 16 33.377 16 56 0 27.976-9.972 45.963-22 62-12.776 17.035-30.076 26-60 26-30.802 0-54.673-12.673-70-28-13.992-13.992-22-43.42-22-70h-92c0 51.336 20.69 92.69 48 120 16 16 34 30 58 38s50 12 80 12c28 0 50-4 72-10 20-8 40-16 54-30 26.805-22.976 46-61.985 46-110 0-40.444-14.717-72.348-32-100-10-16-20-34-34-50s-30-34-46-50z" />
<glyph unicode="&#xe3cf;" glyph-name="exposure_zero" d="M598 506.667c0 51.604-2.887 85.33-22 114-8 12-18 18-28 24s-22 8-36 8-26-2-36-8-20-12-28-24c-19.070-28.606-22-62.453-22-114v-114c0-68.64 9.322-117.593 50-142 10-6 22-8 36-8 33.536 0 49.61 12.416 64 34 17.74 26.61 24 68.817 24 116v114h-2zM336 492.667c0 137.059 42.756 232 176 232 93.018 0 143.69-47.837 164-124 8-30 14-64 14-108v-88h-2c0-79.48-15.373-138.051-48-180-16-18-34-34-56-42s-46-12-72-12-50 4-72 12-40 24-56 42c-34.893 39.254-48 102.511-48 180v88z" />
<glyph unicode="&#xe3d0;" glyph-name="filter_1" d="M896 212.667v598h-598v-598h598zM896 896.667c46 0 86-40 86-86v-598c0-46-40-84-86-84h-598c-46 0-84 38-84 84v598c0 46 38 86 84 86h598zM598 298.667v342h-86v84h170v-426h-84zM128 724.667v-682h682v-86h-682c-46 0-86 40-86 86v682h86z" />
<glyph unicode="&#xe3d1;" glyph-name="filter_2" d="M726 384.667v-86h-256v170c0 48 38 86 84 86h86v86h-170v84h170c46 0 86-36 86-84v-86c0-48-40-86-86-86h-86v-84h172zM896 212.667v598h-598v-598h598zM896 896.667c46 0 86-40 86-86v-598c0-46-40-84-86-84h-598c-46 0-84 38-84 84v598c0 46 38 86 84 86h598zM128 724.667v-682h682v-86h-682c-46 0-86 40-86 86v682h86z" />
<glyph unicode="&#xe3d2;" glyph-name="filter_3" d="M726 384.667c0-48-40-86-86-86h-170v86h170v84h-86v86h86v86h-170v84h170c46 0 86-36 86-84v-64c0-36-28-64-64-64 36 0 64-28 64-64v-64zM128 724.667v-682h682v-86h-682c-46 0-86 40-86 86v682h86zM896 212.667v598h-598v-598h598zM896 896.667c46 0 86-40 86-86v-598c0-46-40-84-86-84h-598c-46 0-84 38-84 84v598c0 46 38 86 84 86h598z" />
<glyph unicode="&#xe3d3;" glyph-name="filter2" d="M896 212.667v598h-598v-598h598zM896 896.667c46 0 86-40 86-86v-598c0-46-40-84-86-84h-598c-46 0-84 38-84 84v598c0 46 38 86 84 86h598zM128 724.667v-682h682v-86h-682c-46 0-86 40-86 86v682h86zM680 498.667l152-200h-470l118 150 84-100z" />
<glyph unicode="&#xe3d4;" glyph-name="filter_4" d="M896 212.667v598h-598v-598h598zM896 896.667c46 0 86-40 86-86v-598c0-46-40-84-86-84h-598c-46 0-84 38-84 84v598c0 46 38 86 84 86h598zM640 298.667v170h-170v256h84v-170h86v170h86v-426h-86zM128 724.667v-682h682v-86h-682c-46 0-86 40-86 86v682h86z" />
<glyph unicode="&#xe3d5;" glyph-name="filter_5" d="M726 384.667c0-48-40-86-86-86h-170v86h170v84h-170v256h256v-84h-172v-86h86c46 0 86-38 86-86v-84zM128 724.667v-682h682v-86h-682c-46 0-86 40-86 86v682h86zM896 212.667v598h-598v-598h598zM896 896.667c46 0 86-40 86-86v-598c0-46-40-84-86-84h-598c-46 0-84 38-84 84v598c0 46 38 86 84 86h598z" />
<glyph unicode="&#xe3d6;" glyph-name="filter_6" d="M554 468.667v-84h86v84h-86zM554 298.667c-46 0-84 38-84 86v256c0 48 38 84 84 84h172v-84h-172v-86h86c46 0 86-38 86-86v-84c0-48-40-86-86-86h-86zM896 212.667v598h-598v-598h598zM896 896.667c46 0 86-40 86-86v-598c0-46-40-84-86-84h-598c-46 0-84 38-84 84v598c0 46 38 86 84 86h598zM128 724.667v-682h682v-86h-682c-46 0-86 40-86 86v682h86z" />
<glyph unicode="&#xe3d7;" glyph-name="filter_7" d="M554 298.667h-84l170 342h-170v84h256v-84zM896 212.667v598h-598v-598h598zM896 896.667c46 0 86-40 86-86v-598c0-46-40-84-86-84h-598c-46 0-84 38-84 84v598c0 46 38 86 84 86h598zM128 724.667v-682h682v-86h-682c-46 0-86 40-86 86v682h86z" />
<glyph unicode="&#xe3d8;" glyph-name="filter_8" d="M554 468.667v-84h86v84h-86zM554 640.667v-86h86v86h-86zM554 298.667c-46 0-84 38-84 86v64c0 36 28 64 64 64-36 0-64 28-64 64v64c0 48 38 84 84 84h86c46 0 86-36 86-84v-64c0-36-28-64-64-64 36 0 64-28 64-64v-64c0-48-40-86-86-86h-86zM896 212.667v598h-598v-598h598zM896 896.667c46 0 86-40 86-86v-598c0-46-40-84-86-84h-598c-46 0-84 38-84 84v598c0 46 38 86 84 86h598zM128 724.667v-682h682v-86h-682c-46 0-86 40-86 86v682h86z" />
<glyph unicode="&#xe3d9;" glyph-name="filter_9" d="M640 554.667v86h-86v-86h86zM640 724.667c46 0 86-36 86-84v-256c0-48-40-86-86-86h-170v86h170v84h-86c-46 0-84 38-84 86v86c0 48 38 84 84 84h86zM896 212.667v598h-598v-598h598zM896 896.667c46 0 86-40 86-86v-598c0-46-40-84-86-84h-598c-46 0-84 38-84 84v598c0 46 38 86 84 86h598zM128 724.667v-682h682v-86h-682c-46 0-86 40-86 86v682h86z" />
<glyph unicode="&#xe3da;" glyph-name="filter_9_plus" d="M896 554.667v256h-598v-598h598v256h-86v-84h-84v84h-86v86h86v86h84v-86h86zM896 896.667c46 0 86-40 86-86v-598c0-46-40-84-86-84h-598c-46 0-84 38-84 84v598c0 46 38 86 84 86h598zM470 554.667h42v42h-42v-42zM598 426.667c0-48-40-86-86-86h-128v86h128v42h-42c-46 0-86 38-86 86v42c0 48 40 86 86 86h42c46 0 86-38 86-86v-170zM128 724.667v-682h682v-86h-682c-46 0-86 40-86 86v682h86z" />
<glyph unicode="&#xe3dc;" glyph-name="filter_center_focus" d="M512 554.667c70 0 128-58 128-128s-58-128-128-128-128 58-128 128 58 128 128 128zM810 128.667v170h86v-170c0-46-40-86-86-86h-170v86h170zM810 810.667c46 0 86-40 86-86v-170h-86v170h-170v86h170zM214 724.667v-170h-86v170c0 46 40 86 86 86h170v-86h-170zM214 298.667v-170h170v-86h-170c-46 0-86 40-86 86v170h86z" />
<glyph unicode="&#xe3dd;" glyph-name="filter_drama" d="M810 170.667c70 0 128 58 128 128s-58 128-128 128h-64v22c0 130-104 234-234 234-76 0-144-36-188-94 108-30 188-130 188-248h-86c0 94-76 172-170 172s-170-78-170-172 76-170 170-170h554zM826 510.667c110-8 198-100 198-212 0-118-96-214-214-214h-554c-142 0-256 114-256 256 0 132 100 240 228 254 54 102 160 174 284 174 156 0 284-110 314-258z" />
<glyph unicode="&#xe3e0;" glyph-name="filter_none" d="M896 212.667v598h-598v-598h598zM896 896.667c46 0 86-40 86-86v-598c0-46-40-84-86-84h-598c-46 0-84 38-84 84v598c0 46 38 86 84 86h598zM128 724.667v-682h682v-86h-682c-46 0-86 40-86 86v682h86z" />
<glyph unicode="&#xe3e2;" glyph-name="ruler-size-chart-noun" d="M61.44-49.493h901.12c0.952 0.051 1.915 0.051 2.867 0.164 1.905 0.215 3.779 0.635 5.591 1.27 7.291 2.56 13.148 8.417 15.708 15.708 0.635 1.812 1.055 3.686 1.27 5.591 0.113 0.952 0.113 1.915 0.164 2.867v901.12c-0.051 0.952-0.051 1.915-0.164 2.867-0.215 1.905-0.635 3.779-1.27 5.591-2.56 7.291-8.417 13.148-15.708 15.708-1.812 0.635-3.686 1.055-5.591 1.27-0.952 0.113-1.915 0.113-2.867 0.164h-225.28c-0.952-0.051-1.915-0.102-2.867-0.164-0.942-0.154-1.894-0.266-2.826-0.481-1.874-0.42-3.686-1.055-5.417-1.894-6.072-2.918-10.824-8.243-13.056-14.602-0.635-1.812-1.055-3.686-1.27-5.591-0.113-0.952-0.113-1.915-0.164-2.867v-650.24l-653.107-0.164c-0.942-0.154-1.894-0.266-2.826-0.481-1.874-0.42-3.686-1.055-5.417-1.894-6.072-2.918-10.824-8.243-13.056-14.602-0.635-1.812-1.055-3.686-1.27-5.591-0.113-0.952-0.113-1.915-0.164-2.867v-225.28c0.051-0.952 0.051-1.915 0.164-2.867 0.215-1.905 0.635-3.779 1.27-5.591 2.56-7.291 8.417-13.148 15.708-15.708 1.812-0.635 3.686-1.055 5.591-1.27 0.952-0.113 1.915-0.113 2.867-0.164zM762.88 790.597v61.030h174.080c0-283.31 0-566.61 0-849.92h-849.92v174.080h61.133c-0.143-29.010 0.307-58.030 0.307-87.040 0.020-1.075 0.072-2.14 0.205-3.205 0.399-3.195 1.413-6.308 2.959-9.124 1.208-2.202 2.734-4.209 4.526-5.96 1.782-1.751 3.83-3.236 6.052-4.403 6.052-3.164 13.271-3.768 19.773-1.659 3.052 0.993 5.919 2.57 8.407 4.628 2.478 2.048 4.557 4.567 6.113 7.393 1.372 2.499 2.324 5.243 2.806 8.059 0.184 1.065 0.266 2.12 0.338 3.195 0.614 29.368 0.287 58.747 0.113 88.115h61.041c-0.143-29.010 0.307-58.030 0.307-87.040 0.020-1.075 0.072-2.14 0.205-3.205 0.358-2.836 1.198-5.612 2.468-8.182 1.423-2.877 3.41-5.489 5.796-7.639 2.396-2.15 5.192-3.85 8.212-4.966 2.345-0.87 4.813-1.403 7.311-1.556 6.82-0.43 13.66 1.956 18.739 6.523 1.853 1.679 3.471 3.625 4.762 5.765 1.669 2.755 2.816 5.816 3.348 8.991 0.184 1.065 0.266 2.12 0.338 3.195 0.614 29.368 0.287 58.747 0.113 88.115h61.041c-0.143-29.010 0.307-58.030 0.307-87.040 0.020-1.075 0.072-2.14 0.205-3.205 0.358-2.836 1.198-5.612 2.468-8.182 1.423-2.877 3.41-5.489 5.796-7.639 2.396-2.15 5.192-3.85 8.212-4.966 6.4-2.386 13.64-2.079 19.814 0.829 2.273 1.065 4.372 2.468 6.236 4.137 1.853 1.679 3.471 3.625 4.762 5.765 1.669 2.755 2.816 5.816 3.348 8.991 0.184 1.065 0.266 2.12 0.338 3.195 0.614 29.368 0.287 58.747 0.113 88.115h61.041c-0.143-29.010 0.307-58.030 0.307-87.040 0.020-1.075 0.072-2.14 0.205-3.205 0.358-2.836 1.198-5.612 2.468-8.182 1.423-2.877 3.41-5.489 5.796-7.639 2.396-2.15 5.192-3.85 8.212-4.966 2.345-0.87 4.813-1.403 7.311-1.556 6.82-0.43 13.66 1.956 18.739 6.523 1.853 1.679 3.471 3.625 4.762 5.765 1.669 2.755 2.816 5.816 3.348 8.991 0.184 1.065 0.266 2.12 0.338 3.195 0.614 29.368 0.287 58.747 0.113 88.115h61.041c-0.143-29.010 0.307-58.030 0.307-87.040 0.020-1.075 0.072-2.14 0.205-3.205 0.358-2.836 1.198-5.612 2.468-8.182 1.423-2.877 3.41-5.489 5.796-7.639 2.396-2.15 5.192-3.85 8.212-4.966 2.345-0.87 4.813-1.403 7.311-1.556 6.82-0.43 13.66 1.956 18.739 6.523 1.853 1.679 3.471 3.625 4.762 5.765 1.669 2.755 2.816 5.816 3.348 8.991 0.184 1.065 0.266 2.12 0.338 3.195 0.614 29.368 0.287 58.747 0.113 88.115h61.041c-0.143-29.010 0.307-58.030 0.307-87.040 0.020-1.075 0.072-2.14 0.205-3.205 0.358-2.836 1.198-5.612 2.468-8.182 1.423-2.877 3.41-5.489 5.796-7.639 2.396-2.15 5.192-3.85 8.212-4.966 2.345-0.87 4.813-1.403 7.311-1.556 6.82-0.43 13.66 1.956 18.739 6.523 1.853 1.679 3.471 3.625 4.762 5.765 1.669 2.755 2.816 5.816 3.348 8.991 0.184 1.065 0.266 2.12 0.338 3.195 0.614 29.266 0.287 58.532 0.113 87.808 28.979-0.143 57.969 0.307 86.948 0.307 1.075 0.020 2.14 0.072 3.205 0.205 3.195 0.399 6.308 1.413 9.124 2.959 5.99 3.297 10.486 8.97 12.329 15.555 0.676 2.406 0.993 4.915 0.932 7.414-0.051 2.509-0.471 4.997-1.239 7.383-0.993 3.052-2.57 5.919-4.628 8.407-2.048 2.478-4.567 4.557-7.393 6.113-2.499 1.372-5.243 2.324-8.059 2.806-1.065 0.184-2.12 0.266-3.195 0.338-29.368 0.614-58.747 0.758-88.115 0.43v60.723c29.010-0.143 58.030 0.307 87.040 0.307 1.075 0.020 2.14 0.072 3.205 0.205 2.836 0.358 5.612 1.198 8.182 2.468 2.877 1.423 5.489 3.41 7.639 5.796 2.15 2.396 3.85 5.192 4.966 8.212 2.386 6.4 2.079 13.64-0.829 19.814-1.065 2.273-2.468 4.372-4.137 6.236-1.679 1.853-3.625 3.471-5.765 4.762-2.755 1.669-5.816 2.816-8.991 3.348-1.065 0.184-2.12 0.266-3.195 0.338-29.368 0.614-58.747 0.758-88.115 0.43v60.723c29.010-0.143 58.030 0.307 87.040 0.307 1.075 0.020 2.14 0.072 3.205 0.205 2.836 0.358 5.612 1.198 8.182 2.468 2.877 1.423 5.489 3.41 7.639 5.796 2.15 2.396 3.85 5.192 4.966 8.212 0.87 2.345 1.403 4.813 1.556 7.311 0.43 6.82-1.956 13.66-6.523 18.739-1.679 1.853-3.625 3.471-5.765 4.762-2.755 1.669-5.816 2.816-8.991 3.348-1.065 0.184-2.12 0.266-3.195 0.338-29.368 0.614-58.747 0.758-88.115 0.43v60.723c29.010-0.143 58.030 0.307 87.040 0.307 1.075 0.020 2.14 0.072 3.205 0.205 2.836 0.358 5.612 1.198 8.182 2.468 2.877 1.423 5.489 3.41 7.639 5.796 2.15 2.396 3.85 5.192 4.966 8.212 0.87 2.345 1.403 4.813 1.556 7.311 0.43 6.82-1.956 13.66-6.523 18.739-1.679 1.853-3.625 3.471-5.765 4.762-2.755 1.669-5.816 2.816-8.991 3.348-1.065 0.184-2.12 0.266-3.195 0.338-29.368 0.614-58.747 0.758-88.115 0.43v60.723c29.010-0.143 58.030 0.307 87.040 0.307 1.075 0.020 2.14 0.072 3.205 0.205 3.195 0.399 6.308 1.413 9.124 2.959 5.99 3.297 10.486 8.97 12.329 15.555 0.676 2.406 0.993 4.915 0.932 7.414-0.051 2.509-0.471 4.997-1.239 7.383-0.993 3.052-2.57 5.919-4.628 8.407-2.048 2.478-4.567 4.557-7.393 6.113-2.499 1.372-5.243 2.324-8.059 2.806-1.065 0.184-2.12 0.266-3.195 0.338-29.368 0.614-58.747 0.758-88.115 0.43v60.723c29.010-0.143 58.030 0.307 87.040 0.307 1.075 0.020 2.14 0.072 3.205 0.205 3.195 0.399 6.308 1.413 9.124 2.959 5.99 3.297 10.486 8.97 12.329 15.555 0.676 2.406 0.993 4.915 0.932 7.414-0.051 2.509-0.471 4.997-1.239 7.383-0.993 3.052-2.57 5.919-4.628 8.407-2.048 2.478-4.567 4.557-7.393 6.113-2.499 1.372-5.243 2.324-8.059 2.806-1.065 0.184-2.12 0.266-3.195 0.338-29.368 0.614-58.747 0.758-88.115 0.43z" />
<glyph unicode="&#xe3e3;" glyph-name="size-chart-ruler-noun" d="M896 938.667h-768c-70.669-0.058-127.942-57.331-128-127.994v-768.006c0.058-70.669 57.331-127.942 127.994-128h768.006c70.669 0.058 127.942 57.331 128 127.994v768.006c-0.058 70.669-57.331 127.942-127.994 128h-0.006zM972.8 42.667c-0.058-42.392-34.408-76.742-76.794-76.8h-768.006c-42.392 0.058-76.742 34.408-76.8 76.794v768.006c0.058 42.392 34.408 76.742 76.794 76.8h768.006c42.392-0.058 76.742-34.408 76.8-76.794v-0.006zM409.6 759.467h-102.4c-42.392-0.058-76.742-34.408-76.8-76.794v-537.606c0.058-42.392 34.408-76.742 76.794-76.8h102.406c42.392 0.058 76.742 34.408 76.8 76.794v537.606c-0.058 42.392-34.408 76.742-76.794 76.8h-0.006zM435.2 145.067c0-14.138-11.462-25.6-25.6-25.6v0h-102.4c-14.138 0-25.6 11.462-25.6 25.6v0 25.6h64c7.069 0 12.8 5.731 12.8 12.8s-5.731 12.8-12.8 12.8v0h-64v51.2h38.4c7.069 0 12.8 5.731 12.8 12.8s-5.731 12.8-12.8 12.8v0h-38.4v51.2h64c7.069 0 12.8 5.731 12.8 12.8s-5.731 12.8-12.8 12.8v0h-64v51.2h38.4c7.069 0 12.8 5.731 12.8 12.8s-5.731 12.8-12.8 12.8v0h-38.4v51.2h64c7.069 0 12.8 5.731 12.8 12.8s-5.731 12.8-12.8 12.8v0h-64v51.2h38.4c7.069 0 12.8 5.731 12.8 12.8s-5.731 12.8-12.8 12.8v0h-38.4v51.2h64c7.069 0 12.8 5.731 12.8 12.8s-5.731 12.8-12.8 12.8v0h-64v25.6c0 14.138 11.462 25.6 25.6 25.6v0h102.4c14.138 0 25.6-11.462 25.6-25.6v0zM716.8 605.867h-102.4c-42.392-0.058-76.742-34.408-76.8-76.794v-384.006c0.058-42.392 34.408-76.742 76.794-76.8h102.406c42.392 0.058 76.742 34.408 76.8 76.794v384.006c-0.058 42.392-34.408 76.742-76.794 76.8h-0.006zM742.4 145.067c0-14.138-11.462-25.6-25.6-25.6v0h-102.4c-14.138 0-25.6 11.462-25.6 25.6v0 25.6h64c7.069 0 12.8 5.731 12.8 12.8s-5.731 12.8-12.8 12.8v0h-64v51.2h38.4c7.069 0 12.8 5.731 12.8 12.8s-5.731 12.8-12.8 12.8v0h-38.4v51.2h64c7.069 0 12.8 5.731 12.8 12.8s-5.731 12.8-12.8 12.8v0h-64v51.2h38.4c7.069 0 12.8 5.731 12.8 12.8s-5.731 12.8-12.8 12.8v0h-38.4v51.2h64c7.069 0 12.8 5.731 12.8 12.8s-5.731 12.8-12.8 12.8v0h-64v25.6c0 14.138 11.462 25.6 25.6 25.6v0h102.4c14.138 0 25.6-11.462 25.6-25.6v0z" />
<glyph unicode="&#xe3f3;" glyph-name="healing" d="M710 70.667l156 156-156 154-154-156zM598 468.667c-24 0-44-18-44-42s20-42 44-42 42 18 42 42-18 42-42 42zM512 298.667c24 0 42 18 42 42s-18 44-42 44-42-20-42-44 18-42 42-42zM426 384.667c24 0 44 18 44 42s-20 42-44 42-42-18-42-42 18-42 42-42zM312 470.667l154 156-154 154-156-156zM512 554.667c-24 0-42-18-42-42s18-44 42-44 42 20 42 44-18 42-42 42zM756 426.667l170-170c16-16 16-44 0-60l-184-186c-8-8-18-12-30-12s-24 4-32 12l-168 170-170-170c-16-16-44-16-60 0l-186 186c-16 16-16 44 0 60l170 170-170 168c-16 16-16 46 0 62l186 184c8 8 20 12 30 12 12 0 22-4 30-12l170-170 168 170c16 16 46 16 62 0l184-184c16-16 16-46 0-62z" />
<glyph unicode="&#xe3fa;" glyph-name="lens" d="M512 852.667c236 0 426-190 426-426s-190-426-426-426-426 190-426 426 190 426 426 426z" />
<glyph unicode="&#xe3fb;" glyph-name="looks_3" d="M640 490.667v64c0 48-38 86-84 86h-172v-86h172v-86h-86v-84h86v-86h-172v-86h172c46 0 84 38 84 86v64c0 36-28 64-64 64 36 0 64 28 64 64zM812 810.667c46 0 84-40 84-86v-596c0-46-38-86-84-86h-598c-46 0-86 40-86 86v596c0 46 40 86 86 86h598z" />
<glyph unicode="&#xe3fd;" glyph-name="looks_4" d="M640 212.667v428h-86v-172h-84v172h-86v-256h170v-172h86zM810 810.667c46 0 86-40 86-86v-596c0-46-40-86-86-86h-596c-46 0-86 40-86 86v596c0 46 40 86 86 86h596z" />
<glyph unicode="&#xe3fe;" glyph-name="looks_5" d="M640 554.667v86h-256v-256h170v-86h-170v-86h170c46 0 86 38 86 86v86c0 48-40 84-86 84h-84v86h170zM810 810.667c46 0 86-40 86-86v-596c0-46-40-86-86-86h-596c-46 0-86 40-86 86v596c0 46 40 86 86 86h596z" />
<glyph unicode="&#xe3ff;" glyph-name="looks_6" d="M640 554.667v86h-170c-46 0-86-38-86-86v-256c0-48 40-86 86-86h84c46 0 86 38 86 86v86c0 48-40 84-86 84h-84v86h170zM810 810.667c46 0 86-40 86-86v-596c0-46-40-86-86-86h-596c-46 0-86 40-86 86v596c0 46 40 86 86 86h596zM470 298.667v86h84v-86h-84z" />
<glyph unicode="&#xe400;" glyph-name="looks_one-1" d="M598 212.667v428h-172v-86h86v-342h86zM810 810.667c46 0 86-40 86-86v-596c0-46-40-86-86-86h-596c-46 0-86 40-86 86v596c0 46 40 86 86 86h596z" />
<glyph unicode="&#xe401;" glyph-name="looks_two" d="M640 468.667v86c0 48-40 86-86 86h-170v-86h170v-86h-84c-46 0-86-36-86-84v-172h256v86h-170v86h84c46 0 86 36 86 84zM810 810.667c46 0 86-40 86-86v-596c0-46-40-86-86-86h-596c-46 0-86 40-86 86v596c0 46 40 86 86 86h596z" />
<glyph unicode="&#xe402;" glyph-name="loupe" d="M512 84.667c188 0 342 154 342 342s-154 342-342 342-342-154-342-342 154-342 342-342zM512 852.667c236 0 426-190 426-426v-342c0-46-38-84-84-84h-342c-236 0-426 190-426 426s190 426 426 426zM554 640.667v-172h172v-84h-172v-172h-84v172h-172v84h172v172h84z" />
<glyph unicode="&#xe404;" glyph-name="movie_creation" d="M768 768.667h170v-598c0-46-38-86-84-86h-684c-46 0-84 40-84 86v512c0 46 38 86 84 86h44l84-172h128l-84 172h84l86-172h128l-86 172h86l86-172h128z" />
<glyph unicode="&#xe405;" glyph-name="music_note" d="M512 810.667h256v-170h-170v-428c0-94-78-170-172-170s-170 76-170 170 76 172 170 172c32 0 60-10 86-24v450z" />
<glyph unicode="&#xe408;" glyph-name="navigate_before" d="M735.834 704.338l-277.671-277.671 277.671-277.671-84.998-84.998-362.669 362.669 362.669 362.669z" />
<glyph unicode="&#xe409;" glyph-name="navigate_next" d="M373.164 789.336l362.669-362.669-362.669-362.669-84.998 84.998 277.671 277.671-277.671 277.671z" />
<glyph unicode="&#xe40a;" glyph-name="palette" d="M746 426.667c36 0 64 28 64 64s-28 64-64 64-64-28-64-64 28-64 64-64zM618 596.667c36 0 64 28 64 64s-28 64-64 64-64-28-64-64 28-64 64-64zM406 596.667c36 0 64 28 64 64s-28 64-64 64-64-28-64-64 28-64 64-64zM278 426.667c36 0 64 28 64 64s-28 64-64 64-64-28-64-64 28-64 64-64zM512 810.667c212 0 384-154 384-342 0-118-96-212-214-212h-74c-36 0-64-28-64-64 0-16 6-30 16-42s16-28 16-44c0-36-28-64-64-64-212 0-384 172-384 384s172 384 384 384z" />
<glyph unicode="&#xe412;" glyph-name="photo_camera" d="M512 212.667c118 0 214 96 214 214s-96 214-214 214-214-96-214-214 96-214 214-214zM384 852.667h256l78-84h136c46 0 84-40 84-86v-512c0-46-38-86-84-86h-684c-46 0-84 40-84 86v512c0 46 38 86 84 86h136zM376 426.667c0 76 60 136 136 136s136-60 136-136-60-136-136-136-136 60-136 136z" />
<glyph unicode="&#xe420;" glyph-name="tag_faces" d="M512 192.667c-100 0-184 60-218 148h436c-34-88-118-148-218-148zM362 468.667c-36 0-64 28-64 64s28 64 64 64 64-28 64-64-28-64-64-64zM662 468.667c-36 0-64 28-64 64s28 64 64 64 64-28 64-64-28-64-64-64zM512 84.667c188 0 342 154 342 342s-154 342-342 342-342-154-342-342 154-342 342-342zM512 852.667c236 0 426-190 426-426s-190-426-426-426-426 190-426 426 190 426 426 426z" />
<glyph unicode="&#xe42d;" glyph-name="wb_cloudy" d="M826 510.667c110-8 198-100 198-212 0-118-96-214-214-214h-554c-142 0-256 114-256 256 0 132 100 240 228 254 54 102 160 174 284 174 156 0 284-110 314-258z" />
<glyph unicode="&#xe42e;" glyph-name="wb_incandescent" d="M736 164.667l60 58 76-76-60-60zM854 490.667h128v-86h-128v86zM640 668.667c76-44 128-126 128-220 0-142-114-256-256-256s-256 114-256 256c0 94 52 176 128 220v206h256v-206zM170 490.667v-86h-128v86h128zM470-19.333v126h84v-126h-84zM152 146.667l76 78 60-60-76-78z" />
<glyph unicode="&#xe430;" glyph-name="wb_sunny" d="M152 146.667l76 78 60-60-76-78zM470-19.333v126h84v-126h-84zM512 704.667c142 0 256-114 256-256s-114-256-256-256-256 114-256 256 114 256 256 256zM854 490.667h128v-86h-128v86zM736 164.667l60 58 76-76-60-60zM872 748.667l-76-76-60 60 76 76zM554 914.667v-126h-84v126h84zM170 490.667v-86h-128v86h128zM288 732.667l-60-60-76 76 60 60z" />
<glyph unicode="&#xe431;" glyph-name="collections_bookmark" d="M854 426.667v342h-214v-342l106 64zM854 852.667c46 0 84-38 84-84v-512c0-46-38-86-84-86h-512c-46 0-86 40-86 86v512c0 46 40 84 86 84h512zM170 682.667v-598h598v-84h-598c-46 0-84 38-84 84v598h84z" />
<glyph unicode="&#xe435;" glyph-name="vignette" d="M512 170.667c188 0 342 114 342 256s-154 256-342 256-342-114-342-256 154-256 342-256zM896 810.667c46 0 86-40 86-86v-596c0-46-40-86-86-86h-768c-46 0-86 40-86 86v596c0 46 40 86 86 86h768z" />
<glyph unicode="&#xe438;" glyph-name="linked_camera" d="M682 682.667c48 0 86-38 86-86h56c0 78-64 142-142 142v-56zM512 128.667c118 0 214 94 214 212s-96 214-214 214-214-96-214-214 96-212 214-212zM726 554.667h212v-470c0-46-38-84-84-84h-684c-46 0-84 38-84 84v512c0 46 38 86 84 86h136l78 86h256v-128c48 0 86-38 86-86zM682 796.667v56c142 0 256-114 256-256h-56c0 110-90 200-200 200zM376 340.667c0 76 60 138 136 138s136-62 136-138-60-136-136-136-136 60-136 136z" />
<glyph unicode="&#xe43a;" glyph-name="movie_filter" d="M722 428.667l88 40-88 40-40 88-40-88-88-40 88-40 40-88zM480 288.667l118 52-118 54-54 118-52-118-118-54 118-52 52-118zM768 768.667h170v-598c0-46-38-86-84-86h-684c-46 0-84 40-84 86v512c0 46 38 86 84 86h44l84-128h128l-84 128h84l86-128h128l-86 128h86l86-128h128z" />
<glyph unicode="&#xe52e;" glyph-name="directions" d="M598 320.667l148 148-148 150v-106h-214c-24 0-42-20-42-44v-170h84v128h172v-106zM926 456.667c16-18 16-44 0-60l-384-384c-16-16-44-16-60 0l-384 384c-16 16-16 44 0 60l384 384c16 16 44 16 60 0z" />
<glyph unicode="&#xe52f;" glyph-name="directions_bike" d="M810 64.667c82 0 150 66 150 148s-68 150-150 150-148-68-148-150 66-148 148-148zM810 426.667c120 0 214-94 214-214s-94-212-214-212-212 92-212 212 92 214 212 214zM460 490.667l94-98v-264h-84v212l-138 120c-18 12-24 34-24 60 0 22 6 42 24 60l120 120c12 18 34 24 60 24s46-6 68-24l82-82c38-38 88-64 152-64v-86c-90 0-160 34-216 90l-34 34zM214 64.667c82 0 148 66 148 148s-66 150-148 150-150-68-150-150 68-148 150-148zM214 426.667c120 0 212-94 212-214s-92-212-212-212-214 92-214 212 94 214 214 214zM662 704.667c-46 0-86 38-86 84s40 86 86 86 84-40 84-86-38-84-84-84z" />
<glyph unicode="&#xe530;" glyph-name="directions_bus" d="M768 468.667v214h-512v-214h512zM704 212.667c36 0 64 28 64 64s-28 64-64 64-64-28-64-64 28-64 64-64zM320 212.667c36 0 64 28 64 64s-28 64-64 64-64-28-64-64 28-64 64-64zM170 256.667v426c0 150 154 170 342 170s342-20 342-170v-426c0-38-18-72-44-96v-76c0-24-18-42-42-42h-42c-24 0-44 18-44 42v44h-340v-44c0-24-20-42-44-42h-42c-24 0-42 18-42 42v76c-26 24-44 58-44 96z" />
<glyph unicode="&#xe531;" glyph-name="directions_car" d="M214 468.667h596l-64 192h-468zM746 256.667c36 0 64 28 64 64s-28 64-64 64-64-28-64-64 28-64 64-64zM278 256.667c36 0 64 28 64 64s-28 64-64 64-64-28-64-64 28-64 64-64zM808 682.667l88-256v-342c0-24-18-42-42-42h-44c-24 0-42 18-42 42v44h-512v-44c0-24-18-42-42-42h-44c-24 0-42 18-42 42v342l88 256c8 26 34 42 62 42h468c28 0 54-16 62-42z" />
<glyph unicode="&#xe532;" glyph-name="directions_boat" d="M256 682.667v-170l256 84 256-84v170h-512zM168 128.667l-80 284c-9.564 28.693 7.98 47.327 28 54l54 18v198c0 46 40 86 86 86h128v128h256v-128h128c46 0 86-40 86-86v-198l54-18c20.040-6.68 37.574-25.277 28-54l-80-284h-2c-68 0-130 36-172 84-42-48-102-84-170-84s-128 36-170 84c-42-48-104-84-172-84h-2zM854 42.667h84v-86h-84c-58 0-118 14-172 42-108-56-232-56-340 0-54-28-114-42-172-42h-84v86h84c60 0 120 20 172 56 104-72 236-72 340 0 52-36 112-56 172-56z" />
<glyph unicode="&#xe536;" glyph-name="directions_walk" d="M418 558.667l-120-602h90l78 342 88-86v-256h86v320l-90 86 26 128c56-64 140-106 234-106v84c-82 0-148 44-182 104l-44 68c-18 26-42 42-72 42-12 0-22-4-34-4l-222-94v-200h86v144l76 30zM576 704.667c-46 0-86 38-86 84s40 86 86 86 86-40 86-86-40-84-86-84z" />
<glyph unicode="&#xe539;" glyph-name="flight" d="M896 256.667l-342 106v-234l86-64v-64l-150 42-148-42v64l84 64v234l-340-106v84l340 214v234c0 36 28 64 64 64s64-28 64-64v-234l342-214v-84z" />
<glyph unicode="&#xe53d;" glyph-name="local_airport" d="M896 256.667l-342 106v-234l86-64v-64l-150 42-148-42v64l84 64v234l-340-106v84l340 214v234c0 36 28 64 64 64s64-28 64-64v-234l342-214v-84z" />
<glyph unicode="&#xe53e;" glyph-name="local_atm" d="M854 170.667v512h-684v-512h684zM854 768.667c48 0 84-38 84-86v-512c0-48-36-86-84-86h-684c-48 0-84 38-84 86v512c0 48 36 86 84 86h684zM470 212.667v44h-86v84h170v44h-128c-24 0-42 18-42 42v128c0 24 18 42 42 42h44v44h84v-44h86v-84h-170v-44h128c24 0 42-18 42-42v-128c0-24-18-42-42-42h-44v-44h-84z" />
<glyph unicode="&#xe540;" glyph-name="local_bar" d="M318 640.667h388l76 84h-540zM896 724.667l-342-384v-212h214v-86h-512v86h214v212l-342 384v86h768v-86z" />
<glyph unicode="&#xe541;" glyph-name="local_cafe" d="M86 42.667v86h768v-86h-768zM854 596.667v128h-86v-128h86zM854 810.667c48 0 84-38 84-86v-128c0-48-36-84-84-84h-86v-128c0-94-76-172-170-172h-256c-94 0-172 78-172 172v426h684z" />
<glyph unicode="&#xe544;" glyph-name="local_drink" d="M782 596.667l18 172h-576l18-172h540zM512 128.667c70 0 128 58 128 128 0 86-128 230-128 230s-128-144-128-230c0-70 58-128 128-128zM128 852.667h768l-86-778c-6-42-40-74-84-74h-428c-44 0-78 32-84 74z" />
<glyph unicode="&#xe545;" glyph-name="local_florist" d="M512 704.667c-58 0-106-50-106-108s48-106 106-106 106 48 106 106-48 108-106 108zM238 500.667c0 42 26 78 62 96-36 18-62 54-62 96 0 58 50 108 108 108 22 0 42-8 60-20v8c0 58 48 108 106 108s106-50 106-108v-8c18 12 38 20 60 20 58 0 108-50 108-108 0-42-26-78-62-96 36-18 62-54 62-96 0-58-50-106-108-106-22 0-42 6-60 18v-8c0-58-48-106-106-106s-106 48-106 106v8c-18-12-38-18-60-18-58 0-108 48-108 106zM512 0.667c-212 0-384 172-384 384 212 0 384-172 384-384zM512 0.667c0 212 172 384 384 384 0-212-172-384-384-384z" />
<glyph unicode="&#xe546;" glyph-name="local_gas_station" d="M768 512.667c24 0 42 18 42 42s-18 42-42 42-42-18-42-42 18-42 42-42zM512 512.667v212h-256v-212h256zM844 630.667c20-20 30-46 30-76v-406c0-58-48-106-106-106s-106 48-106 106v214h-64v-320h-428v682c0 46 40 86 86 86h256c46 0 86-40 86-86v-298h42c46 0 86-40 86-86v-192c0-24 18-42 42-42s42 18 42 42v308c-14-6-26-8-42-8-58 0-106 48-106 106 0 46 28 84 68 100l-90 90 46 44z" />
<glyph unicode="&#xe548;" glyph-name="local_hospital" d="M768 340.667v172h-170v170h-172v-170h-170v-172h170v-170h172v170h170zM810 810.667c46 0 86-40 86-86v-596c0-46-40-86-86-86h-596c-46 0-86 40-86 86v596c0 46 40 86 86 86h596z" />
<glyph unicode="&#xe549;" glyph-name="local_hotel" d="M810 640.667c94 0 172-78 172-172v-384h-86v128h-768v-128h-86v640h86v-384h342v300h340zM298 384.667c-70 0-128 58-128 128s58 128 128 128 128-58 128-128-58-128-128-128z" />
<glyph unicode="&#xe54a;" glyph-name="local_laundry_service" d="M512 84.667c142 0 256 114 256 256s-114 256-256 256-256-114-256-256 114-256 256-256zM298 768.667c-24 0-42-20-42-44s18-42 42-42 44 18 44 42-20 44-44 44zM426 768.667c-24 0-42-20-42-44s18-42 42-42 44 18 44 42-20 44-44 44zM768 852.667c48 0 86-36 86-84v-684c0-48-38-84-86-84h-512c-48 0-86 36-86 84v684c0 48 38 84 86 84h512zM392 220.667l240 242c66-66 66-176 0-242s-174-66-240 0z" />
<glyph unicode="&#xe54b;" glyph-name="local_library" d="M512 596.667c-70 0-128 58-128 128s58 128 128 128 128-58 128-128-58-128-128-128zM512 446.667c100 94 236 150 384 150v-468c-148 0-284-58-384-152-100 94-236 152-384 152v468c148 0 284-56 384-150z" />
<glyph unicode="&#xe54c;" glyph-name="local_mall" d="M512 384.667c118 0 214 94 214 212h-86c0-70-58-128-128-128s-128 58-128 128h-86c0-118 96-212 214-212zM512 810.667c-70 0-128-58-128-128h256c0 70-58 128-128 128zM810 682.667c46 0 86-40 86-86v-512c0-46-40-84-86-84h-596c-46 0-86 38-86 84v512c0 46 40 86 86 86h84c0 118 96 214 214 214s214-96 214-214h84z" />
<glyph unicode="&#xe54e;" glyph-name="local_offer" d="M234 640.667c36 0 64 28 64 64s-28 64-64 64-64-28-64-64 28-64 64-64zM914 444.667c16-16 24-36 24-60s-8-44-24-60l-300-300c-16-16-36-24-60-24s-44 8-60 24l-384 384c-16 16-24 36-24 60v300c0 46 38 84 84 84h300c24 0 44-8 60-24z" />
<glyph unicode="&#xe54f;" glyph-name="local_parking" d="M564 468.667c46 0 84 40 84 86s-38 86-84 86h-138v-172h138zM554 810.667c142 0 256-114 256-256s-114-256-256-256h-128v-256h-170v768h298z" />
<glyph unicode="&#xe550;" glyph-name="local_pharmacy" d="M682 340.667v86h-128v128h-84v-128h-128v-86h128v-128h84v128h128zM896 724.667v-84l-86-256 86-256v-86h-768v86l86 256-86 256v84h542l62 172 100-38-48-134h112z" />
<glyph unicode="&#xe552;" glyph-name="local_pizza" d="M512 298.667c46 0 86 40 86 86s-40 84-86 84-86-38-86-84 40-86 86-86zM298 640.667c0-46 40-86 86-86s86 40 86 86-40 84-86 84-86-38-86-84zM512 852.667c152 0 290-66 384-170l-384-682-384 682c94 104 232 170 384 170z" />
<glyph unicode="&#xe553;" glyph-name="local_play" d="M664 222.667l-46 174 140 116-180 10-66 168-66-168-182-10 142-116-46-174 152 98zM854 426.667c0-46 38-86 84-86v-170c0-46-38-86-84-86h-684c-46 0-84 40-84 86v170c48 0 84 40 84 86s-38 86-84 86v170c0 46 38 86 84 86h684c46 0 84-40 84-86v-170c-46 0-84-40-84-86z" />
<glyph unicode="&#xe55b;" glyph-name="map2" d="M640 128.667v506l-256 90v-506zM874 810.667c12 0 22-10 22-22v-644c0-10-8-18-16-20l-240-82-256 90-228-88-6-2c-12 0-22 10-22 22v644c0 10 8 18 16 20l240 82 256-90 228 88z" />
<glyph unicode="&#xe55c;" glyph-name="my_location" d="M512 128.667c166 0 298 132 298 298s-132 298-298 298-298-132-298-298 132-298 298-298zM894 468.667h88v-84h-88c-20-178-162-320-340-340v-88h-84v88c-178 20-320 162-340 340h-88v84h88c20 178 162 320 340 340v88h84v-88c178-20 320-162 340-340zM512 596.667c94 0 170-76 170-170s-76-170-170-170-170 76-170 170 76 170 170 170z" />
<glyph unicode="&#xe561;" glyph-name="restaurant_menu" d="M634 446.667l-62-62 294-294-60-60-294 294-294-294-60 60 416 416c-30 66-8 158 60 226 82 82 198 96 260 34s48-180-34-262c-68-68-160-88-226-58zM346 368.667l-180 180c-66 66-66 174 0 240l300-298z" />
<glyph unicode="&#xe564;" glyph-name="terrain" d="M598 682.667l384-512h-940l256 342 192-256 68 50-120 162z" />
<glyph unicode="&#xe568;" glyph-name="edit_location" d="M636 616.667c6 6 6 16 0 22l-40 40c-6 6-16 6-22 0l-30-30 62-62zM446 426.667l142 142-62 62-142-142v-62h62zM512 852.667c164 0 298-134 298-298 0-224-298-554-298-554s-298 330-298 554c0 164 134 298 298 298z" />
<glyph unicode="&#xe56a;" glyph-name="person_pin_circle" d="M512 340.667c72 0 134 36 170 92 0 56-114 88-170 88s-170-32-170-88c36-56 98-92 170-92zM512 768.667c-46 0-86-40-86-86 0-48 40-86 86-86s86 38 86 86c0 46-40 86-86 86zM512 852.667c164 0 298-134 298-298 0-224-298-554-298-554s-298 330-298 554c0 164 134 298 298 298z" />
<glyph unicode="&#xe56b;" glyph-name="zoom_out_map" d="M896 298.667v-256h-256l98 98-124 122 62 62 122-124zM384 42.667h-256v256l98-98 122 124 62-62-124-122zM128 554.667v256h256l-98-98 124-122-62-62-122 124zM640 810.667h256v-256l-98 98-122-124-62 62 124 122z" />
<glyph unicode="&#xe56d;" glyph-name="ev_station" d="M342 170.667l170 298h-86v214l-170-320h86v-192zM768 512.667c24 0 42 18 42 42s-18 42-42 42-42-18-42-42 18-42 42-42zM844 630.667c20-20 30-46 30-76v-406c0-58-48-106-106-106s-106 48-106 106v214h-64v-320h-428v682c0 46 40 86 86 86h256c46 0 86-40 86-86v-298h42c46 0 86-40 86-86v-192c0-24 18-42 42-42s42 18 42 42v308c-14-6-26-8-42-8-58 0-106 48-106 106 0 46 28 84 68 100l-90 90 46 44z" />
<glyph unicode="&#xe5c4;" glyph-name="arrow_back" d="M896.002 473.824v-94.314h-583.859l267.228-269.472-67.367-67.367-384.002 384.002 384.002 384.002 67.367-67.367-267.228-269.472h583.859z" />
<glyph unicode="&#xe5c5;" glyph-name="arrow_drop_down" d="M298 512.667h428l-214-214z" />
<glyph unicode="&#xe5c7;" glyph-name="arrow_drop_up" d="M298 340.667l214 214 214-214h-428z" />
<glyph unicode="&#xe5c8;" glyph-name="arrow_forward" d="M512 810.669l384.002-384.002-384.002-384.002-67.367 67.367 267.228 269.472h-583.859v94.314h583.859l-267.228 269.472z" />
<glyph unicode="&#xe5c9;" glyph-name="cancel" d="M726 272.667l-154 154 154 154-60 60-154-154-154 154-60-60 154-154-154-154 60-60 154 154 154-154zM512 852.667c236 0 426-190 426-426s-190-426-426-426-426 190-426 426 190 426 426 426z" />
<glyph unicode="&#xe5cd;" glyph-name="close2" d="M810 664.667l-238-238 238-238-60-60-238 238-238-238-60 60 238 238-238 238 60 60 238-238 238 238z" />
<glyph unicode="&#xe5d0;" glyph-name="fullscreen" d="M598 724.667h212v-212h-84v128h-128v84zM726 212.667v128h84v-212h-212v84h128zM214 512.667v212h212v-84h-128v-128h-84zM298 340.667v-128h128v-84h-212v212h84z" />
<glyph unicode="&#xe5d1;" glyph-name="fullscreen_exit" d="M682 596.667h128v-84h-212v212h84v-128zM598 128.667v212h212v-84h-128v-128h-84zM342 596.667v128h84v-212h-212v84h128zM214 256.667v84h212v-212h-84v128h-128z" />
<glyph unicode="&#xe5d2;" glyph-name="menu" d="M128 682.667h768v-86h-768v86zM128 384.667v84h768v-84h-768zM128 170.667v86h768v-86h-768z" />
<glyph unicode="&#xe5d8;" glyph-name="arrow_upward" d="M106.665 426.667l405.335 405.335 405.335-405.335-73.482-71.11-282.074 282.074v-616.294h-99.554v616.294l-284.443-282.074z" />
<glyph unicode="&#xe5d9;" glyph-name="subdirectory_arrow_left" d="M470 554.667l60-60-154-154h392v428h86v-512h-478l154-154-60-60-256 256z" />
<glyph unicode="&#xe5da;" glyph-name="subdirectory_arrow_right" d="M810 298.667l-256-256-60 60 154 154h-478v512h86v-428h392l-154 154 60 60z" />
<glyph unicode="&#xe5db;" glyph-name="arrow_downward" d="M896.002 426.667l-384.002-384.002-384.002 384.002 69.615 67.367 267.228-267.228v583.857h94.314v-583.857l269.472 267.228z" />
<glyph unicode="&#xe611;" glyph-name="do_not_disturb_alt" d="M512 84.667c188 0 342 154 342 342 0 76-28 150-74 210l-478-478c60-46 134-74 210-74zM170 426.667c0-76 28-150 74-210l478 478c-60 46-134 74-210 74-188 0-342-154-342-342zM512 852.667c234 0 426-192 426-426s-192-426-426-426-426 192-426 426 192 426 426 426z" />
<glyph unicode="&#xe616;" glyph-name="event_note" d="M598 340.667v-84h-300v84h300zM810 128.667v468h-596v-468h596zM810 810.667c46 0 86-40 86-86v-596c0-46-40-86-86-86h-596c-48 0-86 40-86 86v596c0 46 38 86 86 86h42v86h86v-86h340v86h86v-86h42zM726 512.667v-86h-428v86h428z" />
<glyph unicode="&#xe627;" glyph-name="sync" d="M512 170.667v128l170-170-170-172v128c-188 0-342 154-342 342 0 66 20 130 54 182l62-62c-20-36-30-76-30-120 0-142 114-256 256-256zM512 768.667c188 0 342-154 342-342 0-66-20-130-54-182l-62 62c20 36 30 76 30 120 0 142-114 256-256 256v-128l-170 170 170 172v-128z" />
<glyph unicode="&#xe62e;" glyph-name="voice_chat" d="M768 340.667v342l-170-136v136h-342v-342h342v138zM854 852.667c46 0 84-38 84-84v-512c0-46-38-86-84-86h-598l-170-170v768c0 46 38 84 84 84h684z" />
<glyph unicode="&#xe639;" glyph-name="live_tv" d="M384 512.667l298-172-298-170v342zM896 84.667v512h-768v-512h768zM896 682.667c46 0 86-38 86-86v-512c0-46-40-84-86-84h-768c-46 0-86 38-86 84v512c0 48 40 86 86 86h324l-140 140 30 30 170-170 170 170 30-30-140-140h324z" />
<glyph unicode="&#xe63b;" glyph-name="personal_video" d="M896 212.667v512h-768v-512h768zM896 810.667c46 0 86-38 86-86l-2-512c0-46-38-84-84-84h-214v-86h-340v86h-214c-48 0-86 38-86 84v512c0 48 38 86 86 86h768z" />
<glyph unicode="&#xe63e;" glyph-name="wifi2" d="M214 384.667c166 164 432 164 596 0l-84-86c-118 118-310 118-428 0zM384 212.667c70 70 186 70 256 0l-128-128zM42 554.667c260 258 682 258 940 0l-86-86c-212 212-556 212-768 0z" />
<glyph unicode="&#xe63f;" glyph-name="enhanced_encryption" d="M682 256.667v84h-128v128h-84v-128h-128v-84h128v-128h84v128h128zM380 682.667v-86h264v86c0 72-60 132-132 132s-132-60-132-132zM768 596.667c46 0 86-38 86-84v-428c0-46-40-84-86-84h-512c-46 0-86 38-86 84v428c0 46 40 84 86 84h42v86c0 118 96 214 214 214s214-96 214-214v-86h42z" />
<glyph unicode="&#xe7e9;" glyph-name="cake" d="M768 554.667c70 0 128-58 128-128v-66c0-46-38-84-84-84-22 0-42 8-58 24l-92 92-92-92c-32-32-86-32-118 0l-90 92-92-92c-16-16-36-24-58-24-46 0-84 38-84 84v66c0 70 58 128 128 128h214v86h84v-86h214zM708 256.667c28-28 64-44 104-44 32 0 60 10 84 26v-196c0-24-18-42-42-42h-684c-24 0-42 18-42 42v196c24-16 52-26 84-26 40 0 76 16 104 44l46 46 46-46c56-56 152-56 208 0l46 46zM512 682.667c-46 0-86 40-86 86 0 16 6 32 14 44l72 126 72-126c8-12 14-28 14-44 0-46-38-86-86-86z" />
<glyph unicode="&#xe7f3;" glyph-name="mood_bad" d="M512 340.667c100 0 184-60 218-148h-436c34 88 118 148 218 148zM362 468.667c-36 0-64 28-64 64s28 64 64 64 64-28 64-64-28-64-64-64zM662 468.667c-36 0-64 28-64 64s28 64 64 64 64-28 64-64-28-64-64-64zM512 84.667c188 0 342 154 342 342s-154 342-342 342-342-154-342-342 154-342 342-342zM512 852.667c236 0 426-190 426-426s-190-426-426-426-426 190-426 426 190 426 426 426z" />
<glyph unicode="&#xe7fd;" glyph-name="person" d="M512 340.667c114 0 342-56 342-170v-86h-684v86c0 114 228 170 342 170zM512 426.667c-94 0-170 76-170 170s76 172 170 172 170-78 170-172-76-170-170-170z" />
<glyph unicode="&#xe7fe;" glyph-name="person_add" d="M640 340.667c114 0 342-56 342-170v-86h-684v86c0 114 228 170 342 170zM256 512.667h128v-86h-128v-128h-86v128h-128v86h128v128h86v-128zM640 426.667c-94 0-170 76-170 170s76 172 170 172 170-78 170-172-76-170-170-170z" />
<glyph unicode="&#xe834;" glyph-name="check_box" d="M426 212.667l384 384-60 62-324-324-152 152-60-60zM810 810.667c48 0 86-40 86-86v-596c0-46-38-86-86-86h-596c-48 0-86 40-86 86v596c0 46 38 86 86 86h596z" />
<glyph unicode="&#xe838;" glyph-name="star2" d="M512 202.667l-264-160 70 300-232 202 306 26 120 282 120-282 306-26-232-202 70-300z" />
<glyph unicode="&#xe839;" glyph-name="star_half" d="M512 280.667l160-96-42 182 142 124-188 16-72 172v-398zM938 544.667l-232-202 70-300-264 160-264-160 70 300-232 202 306 26 120 282 120-282z" />
<glyph unicode="&#xe83a;" glyph-name="star_border" d="M512 280.667l160-96-42 182 142 124-188 16-72 172-72-172-188-16 142-124-42-182zM938 544.667l-232-202 70-300-264 160-264-160 70 300-232 202 306 26 120 282 120-282z" />
<glyph unicode="&#xe84f;" glyph-name="account_balance" d="M490 896.667l406-214v-86h-810v86zM682 512.667h128v-300h-128v300zM86 0.667v128h810v-128h-810zM426 512.667h128v-300h-128v300zM170 512.667h128v-300h-128v300z" />
<glyph unicode="&#xe859;" glyph-name="android2" d="M640 724.667v44h-42v-44h42zM426 724.667v44h-42v-44h42zM662 846.667c64-46 106-122 106-206h-512c0 84 40 160 104 206l-56 56c-8 8-8 22 0 30s22 8 30 0l64-64c34 18 74 28 114 28s78-10 112-28l64 64c8 8 22 8 30 0s8-22 0-30zM874 596.667c36 0 64-28 64-64v-298c0-36-28-64-64-64s-64 28-64 64v298c0 36 28 64 64 64zM150 596.667c36 0 64-28 64-64v-298c0-36-28-64-64-64s-64 28-64 64v298c0 36 28 64 64 64zM256 170.667v426h512v-426c0-24-18-42-42-42h-44v-150c0-36-28-64-64-64s-64 28-64 64v150h-84v-150c0-36-28-64-64-64s-64 28-64 64v150h-44c-24 0-42 18-42 42z" />
<glyph unicode="&#xe85b;" glyph-name="aspect_ratio" d="M896 126.667v600h-768v-600h768zM896 810.667c46 0 86-40 86-86v-596c0-46-40-86-86-86h-768c-46 0-86 40-86 86v596c0 46 40 86 86 86h768zM298 554.667v-128h-84v214h212v-86h-128zM810 426.667v-214h-212v86h128v128h84z" />
<glyph unicode="&#xe863;" glyph-name="autorenew" d="M800 608.667c34-52 54-116 54-182 0-188-154-342-342-342v-128l-170 172 170 170v-128c142 0 256 114 256 256 0 44-12 84-30 120zM512 682.667c-142 0-256-114-256-256 0-44 10-84 30-120l-62-62c-34 52-54 116-54 182 0 188 154 342 342 342v128l170-172-170-170v128z" />
<glyph unicode="&#xe869;" glyph-name="build" d="M968 128.667c18-12 18-42-4-60l-98-98c-18-18-42-18-60 0l-388 388c-98-38-212-18-294 64-86 86-108 214-56 316l188-184 128 128-184 184c102 46 230 30 316-56 82-82 102-196 64-294z" />
<glyph unicode="&#xe86a;" glyph-name="cached" d="M256 426.667h128l-170-170-172 170h128c0 188 154 342 342 342 66 0 130-20 182-54l-62-62c-36 20-76 30-120 30-142 0-256-114-256-256zM810 596.667l172-170h-128c0-188-154-342-342-342-66 0-130 20-182 54l62 62c36-20 76-30 120-30 142 0 256 114 256 256h-128z" />
<glyph unicode="&#xe86b;" glyph-name="change_history" d="M512 768.667l426-684h-852zM512 606.667l-272-436h544z" />
<glyph unicode="&#xe86c;" glyph-name="check_circle" d="M426 212.667l384 384-60 62-324-324-152 152-60-60zM512 852.667c236 0 426-190 426-426s-190-426-426-426-426 190-426 426 190 426 426 426z" />
<glyph unicode="&#xe86f;" glyph-name="code2" d="M622 230.667l198 196-198 196 60 60 256-256-256-256zM402 230.667l-60-60-256 256 256 256 60-60-198-196z" />
<glyph unicode="&#xe871;" glyph-name="dashboard2" d="M554 810.667h342v-256h-342v256zM554 42.667v426h342v-426h-342zM128 42.667v256h342v-256h-342zM128 384.667v426h342v-426h-342z" />
<glyph unicode="&#xe872;" glyph-name="delete" d="M810 768.667v-86h-596v86h148l44 42h212l44-42h148zM256 128.667v512h512v-512c0-46-40-86-86-86h-340c-46 0-86 40-86 86z" />
<glyph unicode="&#xe876;" glyph-name="done" d="M384 246.667l452 454 60-60-512-512-238 238 58 60z" />
<glyph unicode="&#xe879;" glyph-name="exit_to_app" d="M810 810.667c46 0 86-40 86-86v-596c0-46-40-86-86-86h-596c-48 0-86 40-86 86v170h86v-170h596v596h-596v-170h-86v170c0 46 38 86 86 86h596zM430 272.667l110 112h-412v84h412l-110 112 60 60 214-214-214-214z" />
<glyph unicode="&#xe887;" glyph-name="help" d="M642 458.667c24 24 40 58 40 96 0 94-76 170-170 170s-170-76-170-170h84c0 46 40 86 86 86s86-40 86-86c0-24-10-44-26-60l-52-54c-30-32-50-74-50-120v-22h84c0 64 20 88 50 120zM554 128.667v84h-84v-84h84zM512 852.667c236 0 426-190 426-426s-190-426-426-426-426 190-426 426 190 426 426 426z" />
<glyph unicode="&#xe888;" glyph-name="highlight_off" d="M512 84.667c188 0 342 154 342 342s-154 342-342 342-342-154-342-342 154-342 342-342zM512 852.667c236 0 426-190 426-426s-190-426-426-426-426 190-426 426 190 426 426 426zM622 596.667l60-60-110-110 110-110-60-60-110 110-110-110-60 60 110 110-110 110 60 60 110-110z" />
<glyph unicode="&#xe88a;" glyph-name="home2" d="M426 84.667h-212v342h-128l426 384 426-384h-128v-342h-212v256h-172v-256z" />
<glyph unicode="&#xe88b;" glyph-name="hourglass_empty" d="M512 448.667l170 170v150h-340v-150zM682 234.667l-170 170-170-170v-150h340v150zM256 852.667h512v-256l-170-170 170-170v-256h-512v256l170 170-170 170v256z" />
<glyph unicode="&#xe88c;" glyph-name="hourglass_full" d="M256 852.667h512v-256l-170-170 170-170v-256h-512v256l170 170-170 170v256z" />
<glyph unicode="&#xe894;" glyph-name="language2" d="M698 340.667h144c6 28 12 56 12 86s-6 58-12 86h-144c4-28 6-56 6-86s-2-58-6-86zM622 104.667c78 26 146 82 186 152h-126c-14-54-34-104-60-152zM612 340.667c4 28 6 56 6 86s-2 58-6 86h-200c-4-28-6-56-6-86s2-58 6-86h200zM512 86.667c36 52 64 108 82 170h-164c18-62 46-118 82-170zM342 596.667c14 54 34 104 60 152-78-26-146-82-186-152h126zM216 256.667c40-70 108-126 186-152-26 48-46 98-60 152h-126zM182 340.667h144c-4 28-6 56-6 86s2 58 6 86h-144c-6-28-12-56-12-86s6-58 12-86zM512 766.667c-36-52-64-108-82-170h164c-18 62-46 118-82 170zM808 596.667c-40 70-108 126-186 152 26-48 46-98 60-152h126zM512 852.667c236 0 426-190 426-426s-190-426-426-426-426 190-426 426 190 426 426 426z" />
<glyph unicode="&#xe898;" glyph-name="lock_open" d="M768 84.667v428h-512v-428h512zM768 596.667c46 0 86-38 86-84v-428c0-46-40-84-86-84h-512c-46 0-86 38-86 84v428c0 46 40 84 86 84h388v86c0 72-60 132-132 132s-132-60-132-132h-82c0 118 96 214 214 214s214-96 214-214v-86h42zM512 212.667c-46 0-86 40-86 86s40 86 86 86 86-40 86-86-40-86-86-86z" />
<glyph unicode="&#xe899;" glyph-name="lock_outline" d="M768 84.667v428h-512v-428h512zM380 682.667v-86h264v86c0 72-60 132-132 132s-132-60-132-132zM768 596.667c46 0 86-38 86-84v-428c0-46-40-84-86-84h-512c-46 0-86 38-86 84v428c0 46 40 84 86 84h42v86c0 118 96 214 214 214s214-96 214-214v-86h42zM512 212.667c-46 0-86 40-86 86s40 86 86 86 86-40 86-86-40-86-86-86z" />
<glyph unicode="&#xe89a;" glyph-name="loyalty" d="M736 286.667c20 20 32 46 32 76 0 58-48 106-106 106-30 0-56-10-76-30l-32-32-30 32c-20 20-46 30-76 30-58 0-106-48-106-106 0-30 10-56 30-76l182-182zM234 640.667c36 0 64 28 64 64s-28 64-64 64-64-28-64-64 28-64 64-64zM914 444.667c16-16 24-36 24-60s-8-44-24-60l-300-300c-16-16-36-24-60-24s-44 8-60 24l-384 384c-16 16-24 36-24 60v300c0 46 38 84 84 84h300c24 0 44-8 60-24z" />
<glyph unicode="&#xe89e;" glyph-name="open_in_new" d="M598 810.667h298v-298h-86v152l-418-418-60 60 418 418h-152v86zM810 128.667v298h86v-298c0-46-40-86-86-86h-596c-48 0-86 40-86 86v596c0 46 38 86 86 86h298v-86h-298v-596h596z" />
<glyph unicode="&#xe8ad;" glyph-name="print2" d="M768 810.667v-170h-512v170h512zM810 426.667c24 0 44 18 44 42s-20 44-44 44-42-20-42-44 18-42 42-42zM682 128.667v212h-340v-212h340zM810 596.667c70 0 128-58 128-128v-256h-170v-170h-512v170h-170v256c0 70 58 128 128 128h596z" />
<glyph unicode="&#xe8b1;" glyph-name="redeem" d="M854 340.667v256h-218l90-120-70-50c-48.076 65.258-96.637 130.029-144 196-47.366-65.967-95.923-130.744-144-196l-70 50 90 120h-218v-256h684zM854 128.667v84h-684v-84h684zM384 768.667c-24 0-42-20-42-44s18-42 42-42 42 18 42 42-18 44-42 44zM640 768.667c-24 0-42-20-42-44s18-42 42-42 42 18 42 42-18 44-42 44zM854 682.667c48 0 84-38 84-86v-468c0-48-36-86-84-86h-684c-48 0-84 38-84 86v468c0 48 36 86 84 86h94c-4 14-8 28-8 42 0 70 58 128 128 128 44 0 82-22 106-56l22-30 22 30c24 34 62 56 106 56 70 0 128-58 128-128 0-14-4-28-8-42h94z" />
<glyph unicode="&#xe8b3;" glyph-name="restore" d="M512 596.667h64v-180l150-90-32-52-182 110v212zM554 810.667c212 0 384-172 384-384s-172-384-384-384c-106 0-200 42-270 112l60 62c54-54 128-88 210-88 166 0 300 132 300 298s-134 298-300 298-298-132-298-298h128l-172-172-4 6-166 166h128c0 212 172 384 384 384z" />
<glyph unicode="&#xe8b4;" glyph-name="room" d="M512 448.667c58 0 106 48 106 106s-48 106-106 106-106-48-106-106 48-106 106-106zM512 852.667c166 0 298-132 298-298 0-224-298-554-298-554s-298 330-298 554c0 166 132 298 298 298z" />
<glyph unicode="&#xe8cb;" glyph-name="shopping_basket" d="M512 212.667c46 0 86 40 86 86s-40 86-86 86-86-40-86-86 40-86 86-86zM384 554.667h256l-128 188zM734 554.667h204c24 0 44-18 44-42-34.625-138.041-73.705-271.628-110-408-10-36-42-62-82-62h-556c-40 0-72 26-82 62l-108 396c-2 4-2 8-2 12 0 24 20 42 44 42h204l186 280c8 12 22 18 36 18s28-6 36-18z" />
<glyph unicode="&#xe8cc;" glyph-name="shopping_cart" d="M726 170.667c46 0 84-40 84-86s-38-84-84-84-86 38-86 84 40 86 86 86zM42 852.667h140l40-84h632c24 0 42-20 42-44 0-8-2-14-6-20l-152-276c-14-26-42-44-74-44h-318l-38-70-2-6c0-6 4-10 10-10h494v-86h-512c-46 0-84 40-84 86 0 14 4 28 10 40l58 106-154 324h-86v84zM298 170.667c46 0 86-40 86-86s-40-84-86-84-84 38-84 84 38 86 84 86z" />
<glyph unicode="&#xe8d2;" glyph-name="subject" d="M170 724.667h684v-84h-684v84zM170 298.667v86h684v-86h-684zM854 554.667v-86h-684v86h684zM598 212.667v-84h-428v84h428z" />
<glyph unicode="&#xe8da;" glyph-name="theaters" d="M768 554.667v86h-86v-86h86zM768 384.667v84h-86v-84h86zM768 212.667v86h-86v-86h86zM342 554.667v86h-86v-86h86zM342 384.667v84h-86v-84h86zM342 212.667v86h-86v-86h86zM768 810.667h86v-768h-86v86h-86v-86h-340v86h-86v-86h-86v768h86v-86h86v86h340v-86h86v86z" />
<glyph unicode="&#xe8db;" glyph-name="thumb_down" d="M810 810.667h172v-512h-172v512zM640 810.667c46 0 86-40 86-86v-426c0-24-10-44-26-60l-280-282-46 46c-12 12-18 26-18 44v14l42 196h-270c-46 0-86 38-86 84l2 4h-2v82c0 12 2 22 6 32l130 300c12 30 42 52 78 52h384z" />
<glyph unicode="&#xe8dc;" glyph-name="thumb_up" d="M982 512.667l-2-4h2v-82c0-12-2-22-6-32l-130-300c-12-30-42-52-78-52h-384c-46 0-86 40-86 86v426c0 24 10 44 26 60l280 282 46-46c12-12 18-26 18-44v-14l-42-196h270c46 0 86-38 86-84zM42 42.667v512h172v-512h-172z" />
<glyph unicode="&#xe8ea;" glyph-name="grid-list-view_array" d="M272.22 65.587v781.399h541.62v-781.399h-541.62zM873.080 846.987h180.54v-781.399h-180.54v781.399zM29.62 65.587v781.399h180.54v-781.399h-180.54z" />
<glyph unicode="&#xe8eb;" glyph-name="view_carousel-grid-list" d="M819.681 734.348h204.319v-564.883h-204.319v564.883zM0 169.465v564.883h204.319v-564.883h-204.319zM254.798 68.507v769.202h514.404v-769.202h-514.404z" />
<glyph unicode="&#xe8ef;" glyph-name="view_list-grid" d="M331.46 846.987h722.16v-239.78h-722.16v239.78zM331.46 6.347v239.78h722.16v-239.78h-722.16zM331.46 305.367v242.601h722.16v-242.601h-722.16zM29.62 607.207v239.78h242.601v-239.78h-242.601zM29.62 6.347v239.78h242.601v-239.78h-242.601zM29.62 305.367v242.601h242.601v-242.601h-242.601z" />
<glyph unicode="&#xe8f0;" glyph-name="view_module-grid-list" d="M751.78 846.987h301.84v-361.080h-301.84v361.080zM390.7 485.907v361.080h301.84v-361.080h-301.84zM751.78 65.587v361.080h301.84v-361.080h-301.84zM390.7 65.587v361.080h301.84v-361.080h-301.84zM29.62 65.587v361.080h301.84v-361.080h-301.84zM29.62 485.907v361.080h301.84v-361.080h-301.84z" />
<glyph unicode="&#xe8f2;" glyph-name="view_stream-grid-list" d="M29.62 846.987h1024v-361.080h-1024v361.080zM29.62 65.587v361.080h1024v-361.080h-1024z" />
<glyph unicode="&#xe8f5;" glyph-name="visibility_off" d="M506 554.667h6c70 0 128-58 128-128v-8zM322 520.667c-14-28-24-60-24-94 0-118 96-214 214-214 34 0 66 10 94 24l-66 66c-8-2-18-4-28-4-70 0-128 58-128 128 0 10 2 20 4 28zM86 756.667l54 54 756-756-54-54c-47.968 47.365-96.266 94.401-144 142-58-24-120-36-186-36-214 0-396 132-470 320 34 84 90 156 160 212-39.017 38.983-77.307 78.693-116 118zM512 640.667c-28 0-54-6-78-16l-92 92c52 20 110 30 170 30 214 0 394-132 468-320-32-80-82-148-146-202l-124 124c10 24 16 50 16 78 0 118-96 214-214 214z" />
<glyph unicode="&#xe8f7;" glyph-name="card_membership" d="M854 512.667v256h-684v-256h684zM854 298.667v86h-684v-86h684zM854 852.667c48 0 84-36 84-84v-470c0-48-36-86-84-86h-172v-212l-170 84-170-84v212h-172c-48 0-84 38-84 86v470c0 48 36 84 84 84h684z" />
<glyph unicode="&#xe8f8;" glyph-name="card_travel" d="M854 340.667v256h-128v-84h-86v84h-256v-84h-86v84h-128v-256h684zM854 128.667v84h-684v-84h684zM384 768.667v-86h256v86h-256zM854 682.667c48 0 84-38 84-86v-468c0-48-36-86-84-86h-684c-48 0-84 38-84 86v468c0 48 36 86 84 86h128v86c0 48 38 84 86 84h256c48 0 86-36 86-84v-86h128z" />
<glyph unicode="&#xe8f9;" glyph-name="work" d="M598 682.667v86h-172v-86h172zM854 682.667c48 0 84-38 84-86v-468c0-48-36-86-84-86h-684c-48 0-84 38-84 86v468c0 48 36 86 84 86h172v86c0 48 36 84 84 84h172c48 0 84-36 84-84v-86h172z" />
<glyph unicode="&#xe8fb;" glyph-name="eject2" d="M512 724.667l284-426h-568zM214 212.667h596v-84h-596v84z" />
<glyph unicode="&#xe8fd;" glyph-name="help_outline" d="M512 682.667c94 0 170-76 170-170 0-106-128-118-128-214h-84c0 138 128 128 128 214 0 46-40 84-86 84s-86-38-86-84h-84c0 94 76 170 170 170zM512 84.667c188 0 342 154 342 342s-154 342-342 342-342-154-342-342 154-342 342-342zM512 852.667c236 0 426-190 426-426s-190-426-426-426-426 190-426 426 190 426 426 426zM470 170.667v86h84v-86h-84z" />
<glyph unicode="&#xe900;" glyph-name="iconmonstr-loading-8" d="M119.595 94.848c-67.157 79.317-110.507 179.2-119.595 288.981h85.717c8.576-86.059 42.752-164.651 94.763-228.139l-60.885-60.843zM85.717 469.504c8.576 86.059 42.752 164.651 94.72 228.181l-60.843 60.8c-67.157-79.317-110.507-179.2-119.595-288.981h85.717zM554.837 938.667v-85.717c86.059-8.576 164.651-42.752 228.139-94.72l60.843 60.843c-79.317 67.157-179.2 110.507-288.981 119.595zM241.024 758.23c63.488 51.968 142.080 86.144 228.096 94.72v85.717c-109.696-9.088-209.579-52.437-288.939-119.595l60.843-60.843zM843.563 697.643c51.968-63.488 86.144-142.080 94.72-228.096h85.717c-9.088 109.739-52.437 209.621-119.595 288.939l-60.843-60.843zM938.283 383.83c-8.576-86.016-42.752-164.608-94.72-228.096l60.843-60.843c67.157 79.317 110.507 179.243 119.595 288.939h-85.717zM469.163 0.384c-86.016 8.576-164.608 42.752-228.096 94.72l-60.843-60.843c79.36-67.157 179.243-110.507 288.939-119.595v85.717zM783.019 95.104c-63.488-51.968-142.123-86.144-228.139-94.72v-85.717c109.739 9.088 209.664 52.437 288.981 119.595l-60.843 60.843z" />
<glyph unicode="&#xe901;" glyph-name="tiktok" d="M900.267 648.533c-98.133 17.067-170.667 93.867-187.733 187.733-4.267 12.8-12.8 21.333-25.6 21.333h-174.933c-12.8 0-25.6-12.8-25.6-25.6v-490.667c0-25.6-12.8-46.933-34.133-64-34.133-25.6-85.333-21.333-110.933 17.067-12.8 17.067-17.067 38.4-17.067 59.733 4.267 21.333 17.067 38.4 34.133 51.2 8.533 4.267 8.533 12.8 8.533 21.333v183.467c0 8.533-4.267 17.067-8.533 21.333-8.533 4.267-17.067 8.533-21.333 4.267-136.533-34.133-234.667-153.6-234.667-294.4 0-81.067 29.867-157.867 89.6-213.333 55.467-55.467 132.267-89.6 213.333-89.6 166.4 0 302.933 136.533 302.933 302.933v140.8c55.467-34.133 119.467-55.467 183.467-59.733 8.533 0 12.8 0 21.333 8.533 4.267 4.267 8.533 12.8 8.533 21.333v170.667c0 12.8-8.533 21.333-21.333 25.6zM870.4 482.133c-59.733 12.8-119.467 34.133-170.667 72.533-8.533 4.267-17.067 8.533-29.867 4.267-8.533-4.267-12.8-12.8-12.8-25.6v-192c0-136.533-110.933-251.733-251.733-251.733-68.267 0-128 25.6-179.2 72.533-46.933 46.933-72.533 110.933-72.533 179.2 0 106.667 64 196.267 162.133 234.667v-136.533c-21.333-21.333-38.4-46.933-42.667-76.8-4.267-34.133 4.267-68.267 25.6-98.133 42.667-59.733 128-72.533 187.733-25.6 34.133 25.6 51.2 64 51.2 106.667v460.8h128c25.6-102.4 102.4-179.2 204.8-204.8v-119.467z" />
<glyph unicode="&#xe902;" glyph-name="x" d="M605.867 499.2l268.8 268.8c12.8 12.8 12.8 34.133 0 46.933s-34.133 12.8-46.933 0l-264.533-264.533-183.467 256c-8.533 8.533-17.067 17.067-25.6 17.067h-183.467c-12.8 0-21.333-8.533-29.867-17.067-4.267-12.8-4.267-25.6 4.267-34.133l273.067-371.2-268.8-268.8c-12.8-12.8-12.8-34.133 0-46.933 4.267-4.267 12.8-8.533 21.333-8.533s17.067 4.267 21.333 8.533l264.533 264.533 187.733-260.267c4.267-8.533 17.067-12.8 25.6-12.8h183.467c12.8 0 21.333 8.533 29.867 17.067s4.267 25.6-4.267 34.133l-273.067 371.2zM686.933 140.8l-452.267 614.4h102.4l452.267-618.667h-102.4z" />
<glyph unicode="&#xe907;" glyph-name="iconmonstr-smartphone-13-device" d="M578.688-85.333h-493.355c-47.104 0-85.333 38.229-85.333 85.333v853.333c0 47.104 38.229 85.333 85.333 85.333h597.333c47.104 0 85.333-38.229 85.333-85.333v-170.667h-85.333v128h-597.333v-725.333h469.333v-106.667c0-22.357 7.765-50.133 24.021-64zM960 640c35.328 0 64-28.672 64-64v-597.333c0-35.243-28.629-64-64-64h-298.667c-35.371 0-64 28.8-64 64v597.333c0 35.285 28.715 64 64 64h298.667zM384 42.667c-23.552 0-42.667-19.115-42.667-42.667s19.115-42.667 42.667-42.667c23.552 0 42.667 19.115 42.667 42.667s-19.115 42.667-42.667 42.667zM810.667-42.666c23.552 0 42.624 19.115 42.624 42.667s-19.072 42.667-42.624 42.667c-23.595 0-42.667-19.115-42.667-42.667s19.072-42.667 42.667-42.667zM981.333 85.334v427.691h-341.333v-427.691h341.333zM832 554.667c11.733 0 21.333 9.557 21.333 21.333s-9.6 21.333-21.333 21.333h-42.667c-11.776 0-21.333-9.557-21.333-21.333s9.557-21.333 21.333-21.333h42.667z" />
<glyph unicode="&#xe90e;" glyph-name="iconmonstr-instagram-13" d="M649.941 704.512c-35.968 1.621-46.805 1.963-137.941 1.963s-101.931-0.341-137.899-1.963c-92.587-4.224-135.723-48.085-139.904-139.904-1.664-36.011-2.048-46.805-2.048-137.941s0.384-101.931 2.005-137.941c4.224-91.648 47.189-135.68 139.904-139.904 35.968-1.621 46.805-2.005 137.941-2.005 91.179 0 101.973 0.341 137.941 1.963 92.587 4.224 135.68 48.171 139.904 139.904 1.621 36.011 1.963 46.805 1.963 137.941s-0.341 101.931-1.963 137.899c-4.224 91.861-47.403 135.765-139.904 139.989zM512 251.392c-96.811 0-175.275 78.464-175.275 175.275s78.507 175.275 175.275 175.275 175.275-78.464 175.275-175.275c0-96.811-78.464-175.275-175.275-175.275zM694.229 567.894c-22.613 0-40.96 18.347-40.96 40.96s18.347 40.96 40.96 40.96 40.96-18.347 40.96-40.96-18.347-40.96-40.96-40.96zM625.792 426.667c0-62.848-50.944-113.792-113.792-113.792s-113.792 50.944-113.792 113.792c0 62.848 50.944 113.792 113.792 113.792s113.792-50.944 113.792-113.792zM810.667 938.667h-597.333c-117.803 0-213.333-95.531-213.333-213.333v-597.333c0-117.803 95.531-213.333 213.333-213.333h597.333c117.845 0 213.333 95.531 213.333 213.333v597.333c0 117.803-95.488 213.333-213.333 213.333zM851.285 285.952c-5.632-124.117-74.709-192.896-198.528-198.571-36.437-1.664-48.043-2.048-140.757-2.048s-104.277 0.384-140.715 2.048c-124.075 5.675-192.853 74.581-198.571 198.571-1.664 36.395-2.048 48-2.048 140.715 0 92.672 0.384 104.32 2.048 140.715 5.717 124.075 74.581 192.896 198.571 198.528 36.437 1.707 48 2.091 140.715 2.091s104.32-0.384 140.757-2.048c124.075-5.675 192.981-74.709 198.528-198.528 1.664-36.437 2.048-48.085 2.048-140.757 0-92.715-0.384-104.32-2.048-140.715z" />
<glyph unicode="&#xe90f;" glyph-name="iconmonstr-instagram-6" d="M905.856 938.667h-787.712c-65.237 0-118.144-52.907-118.144-118.144v-787.627c0-65.323 52.907-118.229 118.144-118.229h787.755c65.237 0 118.101 52.907 118.101 118.229v787.627c0 65.237-52.864 118.144-118.144 118.144zM512 623.574c108.757 0 196.949-88.107 196.949-196.907 0-108.757-88.192-196.949-196.949-196.949s-196.907 88.235-196.907 196.949c0 108.8 88.149 196.907 196.907 196.907zM896 82.006c0-21.717-17.621-39.339-39.424-39.339h-689.152c-21.803 0-39.424 17.621-39.424 39.339v429.995h80.939c-3.755-13.44-6.528-27.307-8.533-41.429-2.133-14.379-3.456-28.971-3.456-43.904 0-174.037 141.056-315.093 315.051-315.093s315.051 141.056 315.051 315.093c0 14.933-1.323 29.525-3.456 43.861-2.005 14.123-4.779 27.989-8.533 41.429h80.939v-429.952zM896 678.486c0-21.717-17.621-39.381-39.424-39.381h-92.757c-21.803 0-39.381 17.664-39.381 39.381v92.8c0 21.76 17.579 39.381 39.381 39.381h92.757c21.803 0 39.424-17.621 39.424-39.381v-92.8z" />
<glyph unicode="&#xe910;" glyph-name="iconmonstr-drop-22" d="M938.666 656.512l-57.344 68.821-121.131-99.883c-54.912 91.264-124.459 193.408-205.525 313.216-207.787-307.072-341.333-499.157-341.333-685.867 0-24.661 3.2-48.469 8.235-71.595l-136.235-112.384 57.344-68.821 795.989 656.512zM299.092 245.163l-0.427 7.637c0 139.947 99.925 301.525 256 533.461 53.717-79.829 100.181-150.869 138.709-215.979l-394.283-325.12zM829.268 499.627c42.795-88.619 66.731-168.235 66.731-246.827 0-186.795-152.704-338.133-341.333-338.133-111.189 0-209.579 52.821-271.915 134.272l65.963 54.357c46.635-62.464 121.472-103.296 205.952-103.296 141.184 0 256 113.408 256 252.8 0 58.368-18.261 120.96-49.835 190.421l68.437 56.405z" />
<glyph unicode="&#xe911;" glyph-name="iconmonstr-youtube-5" d="M355.243 682.667h30.763l21.035-78.976 19.541 78.976h31.019l-35.499-117.419v-80.128h-30.549v80.128l-36.309 117.419zM495.915 632.022c-23.893 0-39.723-15.787-39.723-39.125v-71.467c0-25.685 13.397-39.083 39.723-39.083 21.803 0 38.955 14.592 38.955 39.083v71.467c0 22.827-16.981 39.125-38.955 39.125zM507.264 522.667c0-7.936-4.053-13.781-11.349-13.781-7.509 0-11.819 6.144-11.819 13.781v67.797c0 7.979 3.669 13.909 11.307 13.909 8.277 0 11.861-5.717 11.861-13.909v-67.797zM608.128 630.827v-110.635c-3.285-4.139-10.667-10.923-15.957-10.923-5.76 0-7.211 3.968-7.211 9.813v111.744h-27.093v-121.813c0-14.379 4.395-26.027 18.901-26.027 8.192 0 19.584 4.267 31.317 18.176v-16.085h27.093v145.749h-27.051zM655.104 335.19c-9.557 0-11.563-6.741-11.563-16.299v-14.037h22.827v14.037c0.043 9.429-1.963 16.299-11.264 16.299zM554.795 334.336l-5.333-4.224v-86.485l6.144-4.907c4.224-2.133 10.325-2.304 13.227 1.451 1.451 1.963 2.219 5.163 2.219 9.557v71.68c0 4.693-0.896 8.235-2.731 10.667-3.157 4.096-9.003 4.565-13.525 2.261zM657.749 445.184c-55.509 3.797-236.075 3.755-291.541 0-59.989-4.139-67.072-40.405-67.541-135.851 0.469-95.275 7.467-131.712 67.541-135.851 55.467-3.755 236.032-3.797 291.541 0 60.032 4.096 67.115 40.363 67.584 135.851-0.469 95.275-7.467 131.712-67.584 135.851zM394.837 217.174h-29.056v160.853h-30.080v27.307h89.216v-27.307h-30.080v-160.853zM498.261 217.174h-25.813v15.317c-4.736-5.632-9.728-9.941-14.848-12.885-13.909-7.979-32.981-7.808-32.981 20.352v116.053h25.771v-106.411c0-5.589 1.365-9.344 6.869-9.344 5.035 0 12.032 6.443 15.147 10.411v105.387h25.813v-138.88zM597.589 245.974c0-17.195-6.4-30.549-23.595-30.549-9.472 0-17.323 3.456-24.533 12.459v-10.667h-26.027v188.117h26.027v-60.587c5.845 7.125 13.739 12.971 22.955 12.971 18.901 0 25.173-15.957 25.173-34.773v-76.971zM692.949 283.35h-49.365v-26.197c0-10.411 0.896-19.413 11.307-19.413 10.88 0 11.563 7.339 11.563 19.413v9.643h26.539v-10.411c0-26.752-11.477-42.965-38.656-42.965-24.619 0-37.248 17.963-37.248 42.965v62.293c0 24.107 15.915 40.832 39.211 40.832 24.747 0 36.693-15.744 36.693-40.832v-35.328zM512 853.334c235.264 0 426.667-191.403 426.667-426.667s-191.403-426.667-426.667-426.667-426.667 191.403-426.667 426.667 191.403 426.667 426.667 426.667zM512 938.667c-282.752 0-512-229.248-512-512s229.248-512 512-512 512 229.248 512 512-229.248 512-512 512z" />
<glyph unicode="&#xe913;" glyph-name="iconmonstr-facebook-messenger-1" d="M512 938.667c-282.752 0-512-212.267-512-474.069 0-149.205 74.453-282.283 190.805-369.152v-180.779l174.336 95.659c46.507-12.843 95.829-19.797 146.859-19.797 282.752 0 512 212.224 512 474.069 0 261.803-229.248 474.069-512 474.069zM562.901 300.246l-130.389 139.051-254.421-139.051 279.851 297.088 133.547-139.051 251.264 139.051-279.851-297.088z" />
<glyph unicode="&#xe914;" glyph-name="iconmonstr-facebook-4" d="M512 938.667c-282.752 0-512-229.248-512-512s229.248-512 512-512 512 229.248 512 512-229.248 512-512 512zM640 597.334h-57.6c-22.955 0-27.733-9.429-27.733-33.195v-52.139h85.333l-8.917-85.333h-76.416v-298.667h-128v298.667h-85.333v85.333h85.333v98.475c0 75.477 39.723 114.859 129.237 114.859h84.096v-128z" />
<glyph unicode="&#xe915;" glyph-name="iconmonstr-retweet-3-compare" d="M512 938.667c-282.752 0-512-229.248-512-512s229.248-512 512-512 512 229.248 512 512-229.248 512-512 512zM298.667 213.334v256h-85.333l128 170.667 128-170.667h-85.333v-170.667h125.995l68.011-85.333h-279.339zM682.667 213.334l-128 170.667h85.333v170.667h-124.672l-68.011 85.333h278.016v-256h85.333l-128-170.667z" />
<glyph unicode="&#xe918;" glyph-name="iconmonstr-drop-7" d="M512 938.667c-207.787-307.072-341.333-499.157-341.333-685.867 0-186.795 152.704-338.133 341.333-338.133s341.333 151.339 341.333 338.133c0 186.709-133.547 378.795-341.333 685.867zM531.712 65.238c109.227 44.757 175.957 208.597 128.896 377.728 162.048-209.451 32.171-400.768-128.896-377.728z" />
<glyph unicode="&#xe919;" glyph-name="noun_1058874_cc_filter" horiz-adv-x="819" d="M336.303 392.542c-14.684-49.336-60.387-85.313-114.492-85.313s-99.809 35.976-114.492 85.313h-73.173c-18.86 0-34.149 15.147-34.149 34.125 0 18.847 15.27 34.125 34.149 34.125h73.173c14.684 49.336 60.387 85.313 114.492 85.313s99.809-35.976 114.492-85.313h448.551c18.86 0 34.149-15.147 34.149-34.125 0-18.847-15.27-34.125-34.149-34.125h-448.551zM482.697 170.728c14.684 49.336 60.387 85.313 114.492 85.313s99.809-35.976 114.492-85.313h73.173c18.86 0 34.149-15.147 34.149-34.125 0-18.847-15.27-34.125-34.149-34.125h-73.173c-14.684-49.336-60.387-85.313-114.492-85.313s-99.809 35.976-114.492 85.313h-448.551c-18.86 0-34.149 15.147-34.149 34.125 0 18.847 15.27 34.125 34.149 34.125h448.551zM482.697 750.857c14.684 49.336 60.387 85.313 114.492 85.313s99.809-35.976 114.492-85.313h73.173c18.86 0 34.149-15.147 34.149-34.125 0-18.847-15.27-34.125-34.149-34.125h-73.173c-14.684-49.336-60.387-85.313-114.492-85.313s-99.809 35.976-114.492 85.313h-448.551c-18.86 0-34.149 15.147-34.149 34.125 0 18.847 15.27 34.125 34.149 34.125h448.551zM597.188 665.543c28.27 0 51.188 22.918 51.188 51.188s-22.918 51.188-51.188 51.188c-28.27 0-51.188-22.918-51.188-51.188s22.918-51.188 51.188-51.188zM597.188 85.415c28.27 0 51.188 22.918 51.188 51.188s-22.918 51.188-51.188 51.188c-28.27 0-51.188-22.918-51.188-51.188s22.918-51.188 51.188-51.188zM221.812 477.855c-28.27 0-51.188-22.918-51.188-51.188s22.918-51.188 51.188-51.188c28.27 0 51.188 22.918 51.188 51.188s-22.918 51.188-51.188 51.188z" />
<glyph unicode="&#xe91d;" glyph-name="noun_629049_cc" horiz-adv-x="819" d="M700.115 717.282c-161.159 158.517-420.071 158.517-581.23 0-158.517-161.159-158.517-420.071 0-581.23 161.159-158.517 420.071-158.517 581.23 0 158.517 161.159 158.517 420.071 0 581.23zM546.882 508.568c-5.284-5.284-10.568-5.284-15.852-5.284s-10.568 2.642-15.852 5.284l-87.184 87.184v-391.009c0-10.568-10.568-21.136-21.136-21.136s-21.136 10.568-21.136 21.136v391.009l-87.184-87.184c-7.926-7.926-21.136-7.926-29.061 0s-7.926 21.136 0 29.061l124.172 124.172c7.926 7.926 21.136 7.926 29.061 0l124.172-124.172c10.568-5.284 10.568-21.136 0-29.061z" />
<glyph unicode="&#xe922;" glyph-name="iconmonstr-delivery-8-support" d="M164.181 128h-36.181c-33.963 0-66.517 13.483-90.496 37.504-24.021 23.979-37.504 56.533-37.504 90.496v128c0 306.133 229.419 554.667 512 554.667s512-248.533 512-554.667v-128c0-33.963-13.483-66.517-37.504-90.496-23.979-24.021-56.533-37.504-90.496-37.504h-36.181c-114.773-197.675-294.571-213.333-347.819-213.333s-233.045 15.659-347.819 213.333zM853.333 378.71c-25.643-10.069-54.144 7.68-54.144 34.005 0 12.971-0.939 26.027-2.261 39.040-75.136 10.837-154.368 82.176-157.824 158.848-56.107-85.547-193.067-177.92-300.544-177.92 46.336 29.824 78.464 118.315 81.195 149.675-24.789-46.592-123.648-133.803-194.176-148.779l-0.768-20.864c0-26.411-28.544-44.032-54.144-34.005v-160.896c12.245-10.923 26.965-19.797 44.416-25.344 9.6-3.072 17.579-9.557 22.229-18.091 94.123-172.629 231.509-174.379 274.688-174.379 39.637 0 158.677 1.493 250.752 135.211-45.696-18.475-96.64-25.771-160.384-27.861-15.787-25.6-50.347-43.349-90.368-43.349-54.955 0-99.541 33.451-99.541 74.667s44.587 74.667 99.541 74.667c39.808 0 74.155-17.536 90.112-42.88 81.067 1.109 185.003 14.251 251.221 112.853v95.403zM384 405.334c29.269 0 53.035-28.672 53.035-64s-23.765-64-53.035-64-53.035 28.672-53.035 64 23.765 64 53.035 64zM640 405.334c29.269 0 53.035-28.672 53.035-64s-23.765-64-53.035-64-53.035 28.672-53.035 64 23.765 64 53.035 64zM873.728 469.334h57.899c-36.523 218.368-210.645 384-419.627 384s-383.104-165.632-419.627-384h57.899c22.187 171.648 145.536 329.472 361.728 329.472s339.541-157.824 361.728-329.472z" />
<glyph unicode="&#xe924;" glyph-name="iconmonstr-delivery-9-support" d="M540.416-38.741l-118.912 229.504-69.717-34.133c-75.648-36.693-229.675 264.149-155.691 303.787l70.315 34.645-117.931 230.272-71.125-35.115c-243.285-126.805 142.976-877.611 391.808-763.861 4.096 1.835 70.997 34.773 71.253 34.901zM749.568 72.32l44.416-72.96c-43.477-28.757-91.605-51.072-142.976-65.579l-39.851 77.824c50.133 11.947 96.853 32.768 138.411 60.715zM874.24 201.259l80.299-32.085c-28.928-49.579-65.963-93.824-109.227-131.029l-45.099 74.069c28.501 26.112 53.461 56.107 74.027 89.045zM904.064 258.262c22.272 51.669 34.603 108.629 34.603 168.405 0 235.477-191.189 426.667-426.667 426.667-106.539 0-203.989-39.125-278.784-103.765l-39.808 77.824c87.467 69.632 198.187 111.275 318.592 111.275 282.581 0 512-229.419 512-512 0-70.997-14.507-138.624-40.661-200.107l-79.275 31.701zM754.261 298.667h-61.355v66.133h-122.88v42.197l104.96 168.96h79.275v-162.56h33.28v-48.597h-33.28v-66.133zM537.941 298.667h-196.608v39.211l35.84 32.427c60.587 54.187 90.027 85.333 90.88 117.803 0 22.613-13.653 40.533-45.653 40.533-23.893 0-44.8-11.947-59.307-23.040l-18.347 46.464c20.907 15.787 53.333 28.587 90.88 28.587 62.677 0 97.195-36.651 97.195-86.997 0-46.549-33.664-83.669-73.728-119.509l-25.6-21.333v-0.853h104.448v-53.291zM692.907 413.398v61.44c0 16.683 0.853 33.749 2.133 51.669h-1.707c-8.96-17.92-16.213-34.133-25.6-51.669l-37.12-60.587v-0.853h62.293z" />
<glyph unicode="&#xe926;" glyph-name="iconmonstr-retweet-4-compare" d="M512 853.334c235.264 0 426.667-191.403 426.667-426.667s-191.403-426.667-426.667-426.667-426.667 191.403-426.667 426.667 191.403 426.667 426.667 426.667zM512 938.667c-282.752 0-512-229.248-512-512s229.248-512 512-512 512 229.248 512 512-229.248 512-512 512zM384 469.334v-170.667h125.995l68.011-85.333h-279.339v256h-85.333l128 170.667 128-170.667h-85.333zM640 384v170.667h-124.672l-68.011 85.333h278.016v-256h85.333l-128-170.667-128 170.667h85.333z" />
<glyph unicode="&#xe929;" glyph-name="iconmonstr-loading-3" d="M323.2 710.955l-85.717 148.437 36.992 21.333 85.803-148.608c-12.757-6.4-25.259-13.312-37.077-21.163zM286.464 682.411l-121.387 121.387-30.208-30.208 121.387-121.387c9.429 10.709 19.499 20.736 30.208 30.208zM444.416 761.259l-44.331 165.461-41.259-11.051 44.416-165.675c13.397 4.523 27.051 8.405 41.173 11.264zM227.712 615.424l-148.437 85.717-21.376-36.949 148.651-85.803c6.4 12.757 13.269 25.216 21.163 37.035zM188.672 535.424l-165.675 44.373-11.093-41.259 165.504-44.331c2.859 14.123 6.741 27.776 11.264 41.216zM512 768l21.291-1.067v171.733h-42.667v-171.733l21.376 1.067zM817.408 578.432l148.608 85.803-21.248 36.907-148.437-85.717c7.851-11.819 14.763-24.235 21.077-36.992zM846.592 494.251l165.461 44.373-10.965 41.173-165.717-44.416c4.523-13.397 8.363-27.051 11.221-41.131zM767.701 652.288l121.387 121.387-30.080 30.165-121.429-121.429c10.667-9.429 20.693-19.499 30.123-30.123zM170.667 426.667l1.067 21.333h-171.733v-42.667h171.733l-1.067 21.333zM620.715 750.038l44.373 165.632-41.131 11.093-44.373-165.547c14.080-2.816 27.691-6.699 41.131-11.179zM700.757 710.998l85.675 148.437-36.821 21.333-85.845-148.651c12.715-6.357 25.173-13.269 36.992-21.12zM177.408 359.126l-165.504-44.331 11.093-41.259 165.675 44.416c-4.523 13.397-8.405 27.051-11.264 41.173zM737.536 170.923l121.387-121.344 30.165 30.123-121.387 121.387c-9.429-10.709-19.456-20.736-30.165-30.165zM663.723 121.216l85.803-148.608 36.907 21.333-85.675 148.437c-11.861-7.893-24.32-14.805-37.035-21.163zM796.331 237.91l148.395-85.675 21.333 36.864-148.608 85.803c-6.357-12.757-13.269-25.173-21.12-36.992zM835.371 317.952l165.632-44.373 11.093 41.131-165.504 44.373c-2.859-14.080-6.699-27.733-11.221-41.131zM852.267 447.958l1.067-21.291-1.067-21.333h171.733v42.624h-171.733zM256.299 201.088l-121.429-121.387 30.208-30.165 121.387 121.387c-10.709 9.472-20.736 19.499-30.165 30.165zM579.541 92.075l44.331-165.504 41.216 11.051-44.373 165.675c-13.44-4.523-27.093-8.405-41.173-11.221zM323.2 142.379l-85.717-148.437 36.992-21.291 85.803 148.565c-12.757 6.4-25.216 13.312-37.077 21.163zM206.549 274.944l-148.651-85.803 21.376-36.949 148.437 85.675c-7.893 11.861-14.763 24.32-21.163 37.077zM403.285 103.296l-44.416-165.675 41.216-11.008 44.331 165.419c-14.080 2.901-27.733 6.784-41.131 11.264zM512 85.334l-21.376 1.067v-171.733h42.667v171.733l-21.291-1.067z" />
<glyph unicode="&#xe92e;" glyph-name="iconmonstr-loading-1" d="M348.885 623.958l-129.792 224.768 73.856 42.667 129.877-224.981c-27.051-10.112-52.096-24.363-73.941-42.453zM256 426.667c0 14.549 1.493 28.757 3.84 42.667h-259.84v-85.333h259.84c-2.347 13.909-3.84 28.117-3.84 42.667zM314.752 589.824l-224.811 129.792-42.667-73.899 224.981-129.877c10.112 27.093 24.405 52.139 42.496 73.984zM675.157 623.915l129.835 224.896-73.856 42.624-129.963-225.067c27.093-10.069 52.139-24.363 73.984-42.453zM751.744 515.798l225.109 129.963-42.709 73.856-224.853-129.792c18.091-21.888 32.341-46.933 42.453-74.027zM512 682.667c14.549 0 28.757-1.493 42.667-3.84v259.84h-85.333v-259.84c13.909 2.347 28.117 3.84 42.667 3.84zM601.173 186.966l129.92-225.024 73.856 42.667-129.792 224.853c-21.845-18.133-46.891-32.427-73.984-42.496zM272.299 337.494l-224.939-129.877 42.667-73.899 224.768 129.792c-18.133 21.845-32.427 46.891-42.496 73.984zM764.16 469.334c2.347-13.909 3.84-28.075 3.84-42.667s-1.493-28.757-3.84-42.667h259.84v85.333h-259.84zM709.291 263.552l224.853-129.835 42.624 73.899-225.024 129.92c-10.112-27.093-24.363-52.139-42.453-73.984zM348.885 229.376l-129.749-224.768 73.899-42.667 129.877 224.939c-27.093 10.112-52.181 24.405-74.027 42.496zM512 170.667c-14.549 0-28.757 1.493-42.667 3.84v-259.84h85.333v259.84c-13.909-2.347-28.117-3.84-42.667-3.84z" />
<glyph unicode="&#xe92f;" glyph-name="uniE92F" horiz-adv-x="819" d="M396.711 836.17c1.434-0.281 2.621-0.585 3.783-0.949l-0.249 0.067h15.019c0.049 0 0.108 0 0.166 0 19.174 0 34.765-15.342 35.171-34.42l0.001-0.038v-212.044c0-0.047 0-0.103 0-0.16 0-19.43-15.75-35.181-35.179-35.181-0.056 0-0.112 0-0.168 0h-15.010c-0.047 0-0.103 0-0.159 0-19.429 0-35.179 15.751-35.179 35.181 0 0.056 0 0.113 0 0.168v-0.008 212.044c0.020 16.969 12.049 31.122 28.043 34.418l0.227 0.039c0.912 0.297 2.1 0.601 3.309 0.844l0.225 0.038zM146.695 731.032c0.892 0.080 1.93 0.126 2.978 0.126 9.924 0 18.887-4.11 25.284-10.719l0.009-0.009 150.188-149.314c6.025-6.303 9.732-14.865 9.732-24.292 0-9.869-4.063-18.788-10.608-25.177l-0.007-0.006-10.602-10.602c-1.594-1.968-3.333-3.706-5.236-5.25l-0.065-0.052c-5.452-3.643-12.158-5.813-19.37-5.813-9.678 0-18.443 3.909-24.804 10.233l-150.186 150.195c-6.284 6.352-10.166 15.092-10.166 24.738s3.882 18.386 10.169 24.742l10.599 10.599c5.676 5.875 13.36 9.776 21.945 10.591l0.141 0.011zM670.583 730.15c0.134 0.002 0.29 0.003 0.448 0.003 9.863 0 18.778-4.059 25.166-10.599l10.608-10.608c6.025-6.303 9.732-14.865 9.732-24.292 0-9.869-4.063-18.788-10.608-25.177l-0.007-0.006-149.304-149.314c-6.368-6.377-15.17-10.322-24.893-10.322-8.325 0-15.975 2.892-21.999 7.727l0.069-0.054c-1.044 0.632-1.908 1.216-2.744 1.834l0.095-0.067-10.602 10.602c-6.549 6.395-10.61 15.313-10.61 25.18s4.061 18.785 10.604 25.173l0.007 0.006 149.304 149.314c6.295 6.444 15.033 10.479 24.713 10.602h0.023zM28.312 466.861c1.060 0.114 2.289 0.178 3.534 0.178s2.474-0.064 3.685-0.19l-0.152 0.013h211.146c0.049 0 0.108 0 0.166 0 19.173 0 34.764-15.341 35.171-34.418l0.001-0.038v-15.021c0-0.047 0-0.104 0-0.16 0-19.43-15.75-35.181-35.179-35.181-0.056 0-0.113 0-0.168 0h-211.138c-0.096-0.001-0.208-0.001-0.321-0.001-18.241 0-33.24 13.884-35.005 31.662l-0.012 0.146c-0.028 0.528-0.044 1.146-0.044 1.767s0.016 1.24 0.048 1.853l-0.003-0.086v15.021c0.020 16.969 12.049 31.121 28.043 34.416l0.227 0.039zM565.452 465.979c1.060 0.114 2.289 0.178 3.534 0.178s2.474-0.064 3.685-0.19l-0.152 0.013h211.146c0.047 0 0.103 0 0.159 0 19.429 0 35.179-15.751 35.179-35.181 0-0.056 0-0.113 0-0.168v0.008-15.018c0-0.047 0-0.103 0-0.159 0-19.43-15.75-35.181-35.179-35.181-0.056 0-0.112 0-0.168 0h-211.138c-0.096-0.001-0.208-0.001-0.321-0.001-18.241 0-33.24 13.884-35.005 31.662l-0.012 0.146c-0.028 0.527-0.044 1.145-0.044 1.767s0.016 1.24 0.048 1.853l-0.003-0.086v15.018c-0.006 0.25-0.011 0.546-0.011 0.842 0 16.989 12.040 31.165 28.053 34.459l0.227 0.039zM287.164 351.125c1.136 0.13 2.452 0.204 3.785 0.204 9.962 0 18.957-4.141 25.357-10.796l0.011-0.012 10.602-10.603c5.767-6.247 9.304-14.628 9.304-23.835 0-9.657-3.891-18.404-10.189-24.762l-149.301-149.31c-6.412-6.675-15.413-10.823-25.383-10.823-8.107 0-15.572 2.741-21.521 7.349l0.081-0.060c-0.938 0.848-1.803 1.715-2.62 2.626l-0.028 0.033-10.602 10.602c-6.284 6.352-10.166 15.092-10.166 24.738s3.882 18.386 10.169 24.742l149.301 149.31c5.463 5.702 12.806 9.563 21.031 10.585l0.172 0.018zM522.163 350.242c2.057 0.427 4.421 0.671 6.842 0.671 9.758 0 18.588-3.973 24.96-10.39l149.306-149.315c6.549-6.395 10.611-15.313 10.611-25.18s-4.061-18.785-10.604-25.174l-0.007-0.006-10.602-10.603c-0.846-0.943-1.711-1.81-2.618-2.631l-0.031-0.027c-5.868-4.546-13.334-7.289-21.439-7.289-9.969 0-18.971 4.147-25.372 10.811l-149.315 149.328c-6.284 6.352-10.166 15.092-10.166 24.738s3.882 18.386 10.169 24.742l10.599 10.6c4.68 4.754 10.694 8.18 17.436 9.674l0.234 0.043zM398.478 298.998c1.434-0.279 2.621-0.582 3.783-0.944l-0.249 0.067h15.019c18.867-0.397 34.058-15.59 34.454-34.421l0.001-0.037v-212.044c-0.398-18.867-15.588-34.058-34.417-34.455l-0.038-0.001h-15.019c-0.049 0-0.108 0-0.166 0-19.173 0-34.764 15.341-35.171 34.418l-0.001 0.038v212.044c0.019 16.97 12.048 31.124 28.043 34.419l0.227 0.039c0.912 0.295 2.1 0.598 3.31 0.84l0.224 0.037z" />
<glyph unicode="&#xe935;" glyph-name="iconmonstr-lock-31" d="M1007.829 554.155c10.539-40.917 16.171-83.797 16.171-128 0-282.581-229.419-511.488-512-511.488s-512 228.907-512 511.488c0 282.581 229.419 512 512 512 110.123 0 212.011-35.072 295.552-94.336l73.301 94.848 82.56-256.512h-280.747l72.661 94.037c-69.12 48.128-152.832 76.629-243.328 76.629-235.52 0-426.667-191.189-426.667-426.667 0-235.52 191.147-426.667 426.667-426.667 235.477 0 426.667 191.147 426.667 426.667 0 44.587-6.869 87.595-19.541 128h88.704zM682.667 213.334h-341.333v256h42.667v85.333c0 70.656 57.344 128 128 128s128-57.344 128-128v-85.333h42.667v-256zM469.333 554.667v-85.333h85.333v85.333c0 23.552-19.115 42.667-42.667 42.667s-42.667-19.115-42.667-42.667z" />
<glyph unicode="&#xe93b;" glyph-name="noun_1144586_cc" horiz-adv-x="819" d="M801.198 150.698h-783.396c-9.834 0-17.804-7.971-17.804-17.804s7.971-17.804 17.804-17.804v0h783.396c9.834 0 17.804 7.971 17.804 17.804s-7.971 17.804-17.804 17.804v0zM801.198 346.547h-783.396c-9.834 0-17.804-7.971-17.804-17.804s7.971-17.804 17.804-17.804v0h783.396c9.834 0 17.804 7.971 17.804 17.804s-7.971 17.804-17.804 17.804v0zM801.198 542.396h-783.396c-9.834 0-17.804-7.971-17.804-17.804s7.971-17.804 17.804-17.804v0h783.396c9.834 0 17.804 7.971 17.804 17.804s-7.971 17.804-17.804 17.804v0zM801.198 738.245h-783.396c-9.834 0-17.804-7.971-17.804-17.804s7.971-17.804 17.804-17.804v0h783.396c9.834 0 17.804 7.971 17.804 17.804s-7.971 17.804-17.804 17.804v0z" />
</font>
</defs>
</svg>
